Варта (Сезон 1) / The Watch (Season 1) (2021) 1080p Ukr/Eng | Sub Eng

Нові коментарі

Нова тема   Відповісти
Автор Повідомлення
wuzicka 
Свій


З нами з: 08.03.10
Востаннє: 05.03.21
Повідомлень: 104

2021-01-30 15:04  
Варта (Сезон 1) / The Watch (Season 1) (2021) 1080p Ukr/Eng | Sub Eng

Варта (Сезон 1) / The Watch (Season 1) (2021) 1080p Ukr/Eng | Sub Eng


Жанр: фентезі, бойовик, трилер, драма, пригоди
Країна: США



Кінокомпанія: BBC America
Режисер: Емма Саліван, Браян Келлі, Крейг Вівейрос
Актори: Семюель Адевунмі, Марама Корлетт, Річард Дормер, Джо Ітон-Кент, Адам Хагілл, Лара Россі, Уенделл Пірс, Джо Ваз, Метт Беррі, Ралф Айнесон та інші

Сюжет:
Серіал за мотивами серії романів Террі Пратчетта «Дискосвіт» розповідає про купку копів-невдах, втомлених від десятиліть безпорадності, які збираються врятувати корумповане місто від катастрофи.


Тривалість: 1 серія: ~40:00 (цілком серій: 8)
Перелік серій
01. A Near Vimes Experience.
02. Ook.
03. The What?
04. Twilight Canyon
05. Not on My Watch
06. The Dark in The Dark
07. Nowhere in the Multiverse
08. Better to Light a Candle
Якість:
Відео:
кодек:
розмір кадру: 1920x1080
бітрейт: ~ 8189 кб/с

Аудіо # 1:
мова: українська
переклад: двоголосий закадровий [Dniprofilm]
кодек: 2.0
бітрейт: 384 кб/с

Аудіо # 2:
мова: англійська
переклад: оригінал
кодек: E-AC 6.0
бітрейт: 640 кб/с

Субтитри:
мова: англійська
тип: програмні (м'які)
формат: *.srt
Info
General
Unique ID : 282004463811011966859042896355117569583 (0xD428158992B90106D5D92915583D162F)
Complete name : The Watch.s01.e01..1080p.Ukr.Eng.
Format :
Format version : Version 4
File size : 2.78 GiB
Duration : 43 min 10 s
Overall bit rate : 9 214 kb/s
Movie name : The Watch S01E01 - EniaHD
Encoded date : UTC 2021-01-30 12:34:31
Writing application : v52.0.0 ('Secret For The Mad') 64-bit
Writing library : libebml v1.4.1 + v1.6.2

Video
ID : 1
Format : AVC
Format/Info : Advanced Video Codec
Format profile : [email protected]
Format settings : CABAC / 4 Ref Frames
Format settings, CABAC : Yes
Format settings, ReFrames : 4 frames
Codec ID : V_MPEG4/ISO/AVC
Duration : 43 min 10 s
Bit rate mode : Constant
Bit rate : 8 189 kb/s
Nominal bit rate : 10 000 kb/s
Width : 1 920 pixels
Height : 1 080 pixels
Display aspect ratio : 16:9
Frame rate mode : Constant
Frame rate : 25.000 FPS
Color space : YUV
Chroma subsampling : 4:2:0
Bit depth : 8 bits
Scan type : Progressive
Bits/(Pixel*Frame) : 0.158
Stream size : 2.47 GiB (89%)
Default : Yes
Forced : No
Color range : Limited
Color primaries : BT.709
Transfer characteristics : BT.709
Matrix coefficients : BT.709

Audio #1
ID : 2
Format : AC-3
Format/Info : Audio Coding 3
Commercial name : Dolby Digital
Codec ID : A_AC3
Duration : 43 min 5 s
Bit rate mode : Constant
Bit rate : 384 kb/s
Channel(s) : 2 channels
Channel layout : L R
Sampling rate : 48.0 kHz
Frame rate : 31.250 FPS (1536 SPF)
Bit depth : 16 bits
Compression mode : Lossy
Stream size : 118 MiB (4%)
Language : Ukrainian
Service kind : Complete Main
Default : Yes
Forced : Yes

Audio #2
ID : 3
Format : E-AC-3
Format/Info : Enhanced AC-3
Commercial name : Dolby Digital Plus
Codec ID : A_EAC3
Duration : 43 min 10 s
Bit rate mode : Constant
Bit rate : 640 kb/s
Channel(s) : 6 channels
Channel layout : L R C LFE Ls Rs
Sampling rate : 48.0 kHz
Frame rate : 31.250 FPS (1536 SPF)
Compression mode : Lossy
Stream size : 198 MiB (7%)
Language : English
Service kind : Complete Main
Default : No
Forced : No

Text
ID : 4
Format : UTF-8
Codec ID : S_TEXT/UTF8
Codec ID/Info : UTF-8 Plain Text
Duration : 42 min 19 s
Bit rate : 68 b/s
Count of elements : 719
Stream size : 21.2 KiB (0%)
Title : SDH
Language : English
Default : No
Forced : No
Скріншоти



Джерело:
Особиста оцінка: 5 - позіхав


Авторський реліз (завантажувати можна без реєстрації)
 Трекер:    Зареєстрований   

Завантажити / скачати серіал українською



відео для новачків



 Зареєстрований:   2021-02-16 17:48
 Розмір:   22.74 GB 
 Оцінка серіалу:   9.9/10 (Голосів: 7)
   
wuzicka 
Свій


З нами з: 08.03.10
Востаннє: 05.03.21
Повідомлень: 104

2021-01-30 15:07  
Серіал викликав неоднозначну реакцію, але якщо є бажаючі подивитися у хорошій якості, то прошу дуже...
General Franko-Safon 
VIP


З нами з: 03.07.20
Востаннє: 05.03.21
Повідомлень: 284

2021-01-30 15:56  
Гарний, своєрідний та веселий серіал в якому цілком збережено дух писань Террі Пратчетта. Не звертайте уваги на рейтинг. Його наклацали люди, які, мабуть, очікували посторінкової екранізації. До речі, у серіалі є й прямі цитати з книг.
neokleo 
Частий відвідувач


З нами з: 05.12.17
Востаннє: 01.03.21
Повідомлень: 36

2021-02-02 12:10  
А як тут озвучка, нормально? Чи варто почекати, коли з'явиться краща?
Masanchick 
VIP


З нами з: 08.04.11
Востаннє: 05.03.21
Повідомлень: 1234

2021-02-02 12:12  
neokleo
Автор просто не вказав але тут єдина з наявна озвучка від Дніпрофілм, так що вона повністю нормальна

neokleo 
Частий відвідувач


З нами з: 05.12.17
Востаннє: 01.03.21
Повідомлень: 36

2021-02-02 14:02  
Дякую! Спробую скачати.
wuzicka 
Свій


З нами з: 08.03.10
Востаннє: 05.03.21
Повідомлень: 104

2021-02-02 14:45  
озвучка Дніпрофільм.
вже додав до опису

neokleo 
Частий відвідувач


З нами з: 05.12.17
Востаннє: 01.03.21
Повідомлень: 36

2021-02-02 16:43  
wuzicka
Дякую! А наступні 3 серії коли чекати?

wuzicka 
Свій


З нами з: 08.03.10
Востаннє: 05.03.21
Повідомлень: 104

2021-02-05 13:48  
neokleo
за годину буде 6, а решта згідно графіку виходу

Додано через 42 хвилини 47 секунд:

додано 6-ту серію

wuzicka 
Свій


З нами з: 08.03.10
Востаннє: 05.03.21
Повідомлень: 104

2021-02-10 20:23  
додано 7-му серію
wuzicka 
Свій


З нами з: 08.03.10
Востаннє: 05.03.21
Повідомлень: 104

2021-02-16 17:49  
додано 8-му серію
Crayton 
Новенький


З нами з: 18.03.11
Востаннє: 04.03.21
Повідомлень: 9

2021-02-17 22:28  
General Franko-Safon
Його наклацали люди, які не люблять несвіже лайно)

neokleo 
Частий відвідувач


З нами з: 05.12.17
Востаннє: 01.03.21
Повідомлень: 36

2021-02-18 21:34  
1.Як шанувальниця письменника Террі Пратчетта я була розчарована. Але я була готова до того, що сюжет серіалу буде не зовсім таким як в книжках. По-першу, саме ці твори дуже важко екранізувати, може й не можливо. А по-друге... Коли я побачила перші тізери/трейлери і не змогла нікого з головних героїв одразу ідентифікувати, то зрозуміла, що треба готуватися до сюрпризів. Ну, в принципі, є ж чудові фільми, де сценарій відійшов досить далеко від літературної основи (типу Володар Перснів) які можна дивитися з задоволенням... Та й Going Postal майже вдалася (в порівнянні з іншими екранізаціями Пратчетта). Але дива не сталося. Тому, якщо ви чекаєте саме тієї Варти з Плаского Світу, то краще не дивитися.
Але!
2.Якщо абстрагуватися від книжок, то вийде досить пристойне трешеве кіно, типу "Happy!". Така собі панківська угарна вечірка... Але мені було місцями нудновато, саме тому, що бачила наскільки програють кіношні герої літературним. В книжці - дійсно серйозний супротивник Ваймса - соціопатичний психопат, а у серіалі якийсь слюнтяй Карцер. І вигадана його помічниця досить примітивна та не цікава, тому кінцівка серіала мене взагалі не зацікавила і чекати другий сезон не хочеться. Єдиний, хто більш-менш з героїв сподобався - Сем Ваймс. Він вийшов досить цікавим, хоча й (знову ж таки) програє книжковому прототипу. Тобто дивитись можна і навіть отримати задоволення можна, але лише тим, хто не знайомий з книжковим першоджерелом. Або дуже погано його пам'ятає. Ай, я ж не збиралася у другий частині свого опусу згадувати про книжки (але ж я невиправний книжковий ман'як)! Тому замовкаю. ))

Ваш часовий пояс: GMT + 2 Години

Нова тема   Відповісти