Шрек: Повне зібрання / Shrek: Complete Collection (2001-2012) AVC Ukr/Eng | Sub Ukr/Eng

Нові коментарі

Нова тема   Відповісти
Автор Повідомлення
Anonymous 







2021-01-30 10:27  
Шрек: Повне зібрання / Shrek: Complete Collection (2001-2012) AVC Ukr/Eng | Sub Ukr/Eng


Торрент оновлено 11.04.2021.
Додано дубляж до "Шрек 2 / Shrek 2 (2004)".

01. Шрек / Shrek (2001) AVC 5xUkr/Eng | Sub 2xUkr/Eng
Шрек / Shrek (2001) AVC 5xUkr/Eng | Sub 2xUkr/Eng


Жанр: анімація, пригодницька комедія
Країна: США



Кінокомпанія: DreamWorks Animation, DreamWorks SKG, Pacific Data Images (PDI)
Режисер: Ендрю Адамсон / Andrew Adamson, Вікі Дженсон / Vicky Jenson
Актори: Майк Маєрс / Mike Myers, Едді Мерфі / Eddie Murphy, Камерон Діаз / Cameron Diaz, Джон Літґоу / John Lithgow, Вінсан Кассель / Vincent Cassel та інші

Сюжет:
Жив собі в казковому царстві зелений велетень на ім'я Шрек. Жив він гордою самотою в лісі, на болоті, яке він вважав своїм. Але одного разу злий карлик лорд Фаркад, володар казкового королівства, безжалісно зігнав всіх казкових мешканців на болото Шрека. І безтурботному життю зеленого троля настав кінець. Лорд Фаркад пообіцяв повернути Шреку болото, якщо велетень здобуде йому прекрасну принцесу Фіону, яка мориться у неприступній вежі, яку охороняє вогнедишний дракон...


Тривалість: 01:30:04
Якість:
Відео:
кодек:
розмір кадру: 1200x676
бітрейт: 2 990 кб/с

Аудіо # 1:
мова: українська
озвучення: професійний дубляж | Postmodern Postproduction,
кодек: 2.0 [stereo]
бітрейт: 192 кб/с
примітка: запис з DVB-T2 (18 kHz)
Інформація про озвучення
Ролі дублювали: Шрек — Богдан Бенюк, Віслюк — Дмитро Гаврилов, Принцеса Фіона — Катерина Сергеєва, Лорд Фаркуад — Михайло Войчук, Дзеркало — Андрій Твердак, Піноккіо — Сергій Малюга, Коржик — Олександр Погребняк, епізодична роль — Дмитро Терещук та інші.

Аудіо # 2:
мова: українська
озвучення: професійний дубляж
кодек: 2.0 [dual mono]
бітрейт: 192 кб/с
примітка: запис з DVB-TS (12 kHz)
Інформація про озвучення
Перекладач і автор синхронного тексту: Олекса Негребецький
Режисер дубляжу: Іван Марченко
Ролі дублювали: Майк Маєрс/Шрек — Дмитро Завадський, Еді Мерфі/Віслюк — Микола Боклан, Камерон Діаз/Принцеса Фіона — Ірина Ткаленко, Джон Лайтгоу/Лорд Фаркуад — Анатолій Зіновенко, Дзеркало — Андрій Середа та інші.

Аудіо # 3:
мова: українська
озвучення: професійне, багатоголосе закадрове & &
кодек: 2.0 [stereo]
бітрейт: 192 кб/с
примітка: запис з DVB-С (18 kHz)
Інформація про озвучення

Аудіо # 4:
мова: українська
озвучення: професійне, багатоголосе закадрове
кодек: 2.0 [dual mono]
бітрейт: 192 кб/с
примітка: джерело запису невідомо (10 kHz)
Інформація про озвучення
Студія «1+1» на замовлення телеканалу "1+1"

Ролі озвучили: Олена Узлюк, Юрій Коваленко та Максим Кондратюк

Аудіо # 5:
мова: українська
озвучення: професійне, двоголосе закадрове
кодек: 2.0 [dual mono]
бітрейт: 192 кб/с
примітка: звук витягнуто з центрального каналу псевдо 5.1 (14 kHz)
Інформація про озвучення

Аудіо # 6:
мова: англійська
озвучення: оригінал
кодек: 5.1
бітрейт: 448 кб/с

Субтитри # 1:
мова: українська
тип: програмні (м'які)
формат: *.srt

Субтитри # 2:
мова: українська
тип: програмні (м'які)
формат: *.srt

Субтитри # 3:
мова: англійська
тип: програмні (м'які)
формат: *.srt
Info
General
Unique ID : 138048683771494624248939570818930052218 (0x67DB359A50142250D94FD17B7C860C7A)
Complete name : D:\01. Shrek (2001) AVC [5xUKR_ENG] [Hurtom].
Format :
Format version : Version 4 / Version 2
File size : 2.77 GiB
Duration : 1 h 30 min
Overall bit rate : 4 402 kb/s
Movie name : Шрек / Shrek (2001)
Encoded date : UTC 2021-01-27 09:03:35
Writing application : v51.0.0 ('I Wish') 32-bit
Writing library : libebml v1.4.0 + v1.6.2
Cover : Yes
Attachments : cover.jpg

Video
ID : 1
Format : AVC
Format/Info : Advanced Video Codec
Format profile : [email protected]
Format settings, CABAC : Yes
Format settings, RefFrames : 9 frames
Codec ID : V_MPEG4/ISO/AVC
Duration : 1 h 30 min
Bit rate : 2 990 kb/s
Width : 1 200 pixels
Height : 676 pixels
Display aspect ratio : 16:9
Frame rate mode : Constant
Frame rate : 23.976 (24000/1001) FPS
Color space : YUV
Chroma subsampling : 4:2:0
Bit depth : 8 bits
Scan type : Progressive
Bits/(Pixel*Frame) : 0.154
Stream size : 1.88 GiB (68%)
Writing library : core 114 r1913 5fd3dce
Encoding settings : cabac=1 / ref=9 / deblock=1:-1:-1 / analyse=0x3:0x113 / me=umh / subme=10 / psy=1 / psy_rd=0.80:0.00 / mixed_ref=1 / me_range=32 / chroma_me=1 / trellis=2 / 8x8dct=1 / cqm=0 / deadzone=21,11 / fast_pskip=0 / chroma_qp_offset=-2 / threads=6 / sliced_threads=0 / nr=0 / decimate=1 / interlaced=0 / constrained_intra=0 / bframes=8 / b_pyramid=2 / b_adapt=2 / b_bias=0 / direct=3 / weightb=1 / open_gop=0 / weightp=2 / keyint=250 / keyint_min=23 / scenecut=40 / intra_refresh=0 / rc_lookahead=60 / rc=2pass / mbtree=1 / bitrate=2990 / ratetol=1.0 / qcomp=0.70 / qpmin=0 / qpmax=69 / qpstep=4 / cplxblur=20.0 / qblur=0.5 / vbv_maxrate=50000 / vbv_bufsize=62500 / nal_hrd=none / ip_ratio=1.20 / aq=2:0.70 / zones=119430,129670,q=40
Language : English
Default : Yes
Forced : No
Color range : Limited
Matrix coefficients : BT.709

Audio #1
ID : 2
Format : AC-3
Format/Info : Audio Coding 3
Format settings, Endianness : Big
Codec ID : A_AC3
Duration : 1 h 30 min
Bit rate mode : Constant
Bit rate : 192 kb/s
Channel(s) : 2 channels
Channel positions : Front: L R
Sampling rate : 48.0 kHz
Frame rate : 31.250 FPS (1536 SPF)
Bit depth : 16 bits
Compression mode : Lossy
Stream size : 124 MiB (4%)
Title : Postmodern Postproduction
Language : Ukrainian
Service kind : Complete Main
Default : Yes
Forced : Yes

Audio #2
ID : 3
Format : AC-3
Format/Info : Audio Coding 3
Format settings, Endianness : Big
Codec ID : A_AC3
Duration : 1 h 30 min
Bit rate mode : Constant
Bit rate : 192 kb/s
Channel(s) : 2 channels
Channel positions : Front: L R
Sampling rate : 48.0 kHz
Frame rate : 31.250 FPS (1536 SPF)
Bit depth : 16 bits
Compression mode : Lossy
Stream size : 124 MiB (4%)
Title : ICTV
Language : Ukrainian
Service kind : Complete Main
Default : No
Forced : No

Audio #3
ID : 4
Format : AC-3
Format/Info : Audio Coding 3
Format settings, Endianness : Big
Codec ID : A_AC3
Duration : 1 h 30 min
Bit rate mode : Constant
Bit rate : 192 kb/s
Channel(s) : 2 channels
Channel positions : Front: L R
Sampling rate : 48.0 kHz
Frame rate : 31.250 FPS (1536 SPF)
Bit depth : 16 bits
Compression mode : Lossy
Stream size : 124 MiB (4%)
Title : Kids HD, К1, Інтер
Language : Ukrainian
Service kind : Complete Main
Default : No
Forced : No

Audio #4
ID : 5
Format : AC-3
Format/Info : Audio Coding 3
Format settings, Endianness : Big
Codec ID : A_AC3
Duration : 1 h 30 min
Bit rate mode : Constant
Bit rate : 192 kb/s
Channel(s) : 2 channels
Channel positions : Front: L R
Sampling rate : 48.0 kHz
Frame rate : 31.250 FPS (1536 SPF)
Bit depth : 16 bits
Compression mode : Lossy
Stream size : 124 MiB (4%)
Title : 1+1
Language : Ukrainian
Service kind : Complete Main
Default : No
Forced : No

Audio #5
ID : 6
Format : AC-3
Format/Info : Audio Coding 3
Format settings, Endianness : Big
Codec ID : A_AC3
Duration : 1 h 30 min
Bit rate mode : Constant
Bit rate : 192 kb/s
Channel(s) : 2 channels
Channel positions : Front: L R
Sampling rate : 48.0 kHz
Frame rate : 31.250 FPS (1536 SPF)
Bit depth : 16 bits
Compression mode : Lossy
Stream size : 124 MiB (4%)
Title : Новий канал
Language : Ukrainian
Service kind : Complete Main
Default : No
Forced : No

Audio #6
ID : 7
Format : AC-3
Format/Info : Audio Coding 3
Format settings, Endianness : Big
Codec ID : A_AC3
Duration : 1 h 30 min
Bit rate mode : Constant
Bit rate : 448 kb/s
Channel(s) : 6 channels
Channel positions : Front: L C R, Side: L R, LFE
Sampling rate : 48.0 kHz
Frame rate : 31.250 FPS (1536 SPF)
Bit depth : 16 bits
Compression mode : Lossy
Stream size : 289 MiB (10%)
Title : Original
Language : English
Service kind : Complete Main
Default : No
Forced : No

Text #1
ID : 8
Format : UTF-8
Codec ID : S_TEXT/UTF8
Codec ID/Info : UTF-8 Plain Text
Duration : 1 h 22 min
Bit rate : 106 b/s
Count of elements : 1087
Stream size : 63.9 KiB (0%)
Title : Full (BD CEE)
Language : Ukrainian
Default : No
Forced : No

Text #2
ID : 9
Format : UTF-8
Codec ID : S_TEXT/UTF8
Codec ID/Info : UTF-8 Plain Text
Duration : 1 h 29 min
Bit rate : 83 b/s
Count of elements : 1196
Stream size : 54.4 KiB (0%)
Title : Full (Netflix)
Language : Ukrainian
Default : No
Forced : No

Text #3
ID : 10
Format : UTF-8
Codec ID : S_TEXT/UTF8
Codec ID/Info : UTF-8 Plain Text
Duration : 1 h 22 min
Bit rate : 66 b/s
Count of elements : 1060
Stream size : 40.3 KiB (0%)
Title : Full
Language : English
Default : No
Forced : No

Menu
00:00:00.000 : en:1. Once Upon a Time (Main Title)
00:04:58.798 : en:2. A Flying, Talking Donkey
00:11:45.121 : en:3. What Are You Doing in My Swamp?
00:16:00.793 : en:4. Lord Farquaad
00:20:13.379 : en:5. The Kingdom of DuLoc
00:26:21.455 : en:6. Ogres Are Like Onions
00:31:42.859 : en:7. The Dragon's Keep
00:35:15.280 : en:8. Rescuing the Princess
00:40:26.007 : en:9. Remove Your Helmet
00:45:03.159 : en:10. Campfire
00:49:18.247 : en:11. Merry Men
00:55:29.701 : en:12. Weedrat Dinner
01:00:56.278 : en:13. You Ate the Princess!
01:05:35.348 : en:14. The Proposal
01:09:16.986 : en:15. Wedding Preparation
01:11:34.707 : en:16. That's What Friends Are For
01:14:53.447 : en:17. The Wedding
01:17:35.818 : en:18. Love's True Form
01:20:55.142 : en:19. I'm a Believer
01:23:04.354 : en:20. End Credits
Скріншоти
Особиста оцінка: 9 - давно не бачив настільки якісне кіно
02. Шрек. Привид Лорда Фаркуада / Shrek 4-D (2003) AVC 2xUkr/Eng | Sub Eng
Шрек. Привид Лорда Фаркуада / Shrek 4-D (2003) AVC 2xUkr/Eng | Sub Eng



Жанр: анімація, сімейний, дитячий
Країна: США



Кінокомпанія: DreamWorks Animation, DreamWorks SKG, Pacific Data Images (PDI)
Режисер: Саймон Дж. Сміт / Simon J. Smith
Актори: Майк Маєрс / Mike Myers, Едді Мерфі / Eddie Murphy, Камерон Діаз / Cameron Diaz, Джон Літґоу / John Lithgow, Крістофер Найтс / Christopher Knights та інші

Сюжет:
Лорд Фаркуад був з'їдений драконом, але його дух все ще живий і все такий самий злий. Він викрадає Фіону за допомогою все ще живого помічника-підручного. Шрек і Осел відправляються в подорож, щоб врятувати принцесу.


Тривалість: 00:12:32
Якість:
Відео:
кодек:
розмір кадру: 1024x462
бітрейт: 1 700 кб/с

Аудіо # 1:
мова: українська
озвучення: професійний дубляж |
кодек: 2.0
бітрейт: 192 кб/с

Аудіо # 2:
мова: українська
озвучення: любитильське, багатоголосе закадрове
кодек: 2.0
бітрейт: 192 кб/с

Аудіо # 3:
мова: англійська
озвучення: оригінал
кодек: 5.1
бітрейт: 448 кб/с

Субтитри # 1:
мова: англійська
тип: програмні (м'які)
формат: *.srt
Info
General
Unique ID : 188346230498942323241223631968489852238 (0x8DB22A1E2E88DAADD597E47AE1464D4E)
Complete name : D:\02. Shrek 4-D (2003) AVC [2xUKR_ENG] [Hurtom].
Format :
Format version : Version 4 / Version 2
File size : 228 MiB
Duration : 12 min 32 s
Overall bit rate : 2 536 kb/s
Movie name : Шрек. Привид Лорда Фаркуада / Shrek 4-D (2003)
Encoded date : UTC 2021-01-29 18:27:21
Writing application : v51.0.0 ('I Wish') 32-bit
Writing library : libebml v1.4.0 + v1.6.2
Cover : Yes
Attachments : cover.jpg

Video
ID : 1
Format : AVC
Format/Info : Advanced Video Codec
Format profile : [email protected]
Format settings, CABAC : Yes
Format settings, RefFrames : 9 frames
Codec ID : V_MPEG4/ISO/AVC
Duration : 12 min 32 s
Bit rate : 1 700 kb/s
Width : 1 024 pixels
Height : 462 pixels
Display aspect ratio : 2.2:1
Frame rate mode : Constant
Frame rate : 23.976 (24000/1001) FPS
Color space : YUV
Chroma subsampling : 4:2:0
Bit depth : 8 bits
Scan type : Progressive
Bits/(Pixel*Frame) : 0.150
Stream size : 153 MiB (67%)
Writing library : core 157 r2935 545de2f
Encoding settings : cabac=1 / ref=9 / deblock=1:-1:-1 / analyse=0x3:0x113 / me=umh / subme=11 / psy=1 / psy_rd=1.00:0.15 / mixed_ref=1 / me_range=48 / chroma_me=1 / trellis=2 / 8x8dct=1 / cqm=0 / deadzone=21,11 / fast_pskip=0 / chroma_qp_offset=-5 / threads=14 / lookahead_threads=2 / sliced_threads=0 / nr=0 / decimate=1 / interlaced=0 / bluray_compat=0 / constrained_intra=0 / bframes=8 / b_pyramid=2 / b_adapt=2 / b_bias=0 / direct=1 / weightb=1 / open_gop=0 / weightp=2 / keyint=240 / keyint_min=23 / scenecut=40 / intra_refresh=0 / rc_lookahead=60 / rc=2pass / mbtree=1 / bitrate=1700 / ratetol=1.0 / qcomp=0.60 / qpmin=10 / qpmax=69 / qpstep=4 / cplxblur=20.0 / qblur=0.5 / vbv_maxrate=50000 / vbv_bufsize=62500 / nal_hrd=none / filler=0 / ip_ratio=1.40 / aq=1:1.00
Language : English
Default : Yes
Forced : No

Audio #1
ID : 2
Format : AC-3
Format/Info : Audio Coding 3
Format settings, Endianness : Big
Codec ID : A_AC3
Duration : 12 min 32 s
Bit rate mode : Constant
Bit rate : 192 kb/s
Channel(s) : 2 channels
Channel positions : Front: L R
Sampling rate : 48.0 kHz
Frame rate : 31.250 FPS (1536 SPF)
Bit depth : 16 bits
Compression mode : Lossy
Stream size : 17.2 MiB (8%)
Title : TET
Language : Ukrainian
Service kind : Complete Main
Default : Yes
Forced : Yes

Audio #2
ID : 3
Format : AC-3
Format/Info : Audio Coding 3
Format settings, Endianness : Big
Codec ID : A_AC3
Duration : 12 min 32 s
Bit rate mode : Constant
Bit rate : 192 kb/s
Channel(s) : 2 channels
Channel positions : Front: L R
Sampling rate : 48.0 kHz
Frame rate : 31.250 FPS (1536 SPF)
Bit depth : 16 bits
Compression mode : Lossy
Stream size : 17.2 MiB (8%)
Title : VSTeam
Language : Ukrainian
Service kind : Complete Main
Default : No
Forced : No

Audio #3
ID : 4
Format : AC-3
Format/Info : Audio Coding 3
Format settings, Endianness : Big
Codec ID : A_AC3
Duration : 12 min 32 s
Bit rate mode : Constant
Bit rate : 448 kb/s
Channel(s) : 6 channels
Channel positions : Front: L C R, Side: L R, LFE
Sampling rate : 48.0 kHz
Frame rate : 31.250 FPS (1536 SPF)
Bit depth : 16 bits
Compression mode : Lossy
Stream size : 40.2 MiB (18%)
Title : Original
Language : English
Service kind : Complete Main
Default : No
Forced : No

Text
ID : 5
Format : UTF-8
Codec ID : S_TEXT/UTF8
Codec ID/Info : UTF-8 Plain Text
Duration : 11 min 9 s
Bit rate : 58 b/s
Count of elements : 149
Stream size : 4.78 KiB (0%)
Title : Full
Language : English
Default : No
Forced : No
Скріншоти
Особиста оцінка: 0 - не дивився
03. Шрек 2 / Shrek 2 (2004) AVC 4xUkr/Eng | Sub 2xUkr/Eng
Шрек 2 / Shrek 2 (2004) AVC 4xUkr/Eng | Sub 2xUkr/Eng


Жанр: анімація, пригодницька комедія
Країна: США



Кінокомпанія: DreamWorks Animation, DreamWorks SKG, Pacific Data Images (PDI)
Режисер: Ендрю Адамсон / Andrew Adamson, Вікі Дженсон / Vicky Jenson
Актори: Майк Маєрс / Mike Myers, Едді Мерфі / Eddie Murphy, Камерон Діаз / Cameron Diaz, Джон Літґоу / John Lithgow, Антоніо Бандерас / Antonio Banderas та інші

Сюжет:
Після медового місяця людожер Шрек та його наречена отримують запрошення від батьків Фіони, короля Гарольда та королеви Ліліан. Однак царські особи просто в шоці, що їх дочка не тільки обрала в чоловіки людожера, але й сама перетворилась на монстра. Та їм на допомогу приходить добра хресна-фея, яка взялася повернути Фіоні людську подобу й причарувати її до принца Красеня, якого їй обрали батьки. Ну а на Шрека натравлюють леґендарного вбивцю людожерів, Кота у чоботях...


Тривалість: 01:32:23
Якість:
Відео:
кодек:
розмір кадру: 1200x676
бітрейт: 2 990 кб/с

Аудіо # 1:
мова: українська
озвучення: професійний дубляж | Студія «Так Треба Продакшн»
кодек: 2.0 [stereo]
бітрейт: 192 кб/с

Аудіо # 2:
мова: українська
озвучення: професійне, багатоголосе закадрове & &
кодек: 2.0 [stereo]
бітрейт: 192 кб/с
Інформація про озвучення
Студія "Так Треба Продакшн" на замовлення телеканалу "Інтер"

Ролі озвучили: Володимир Терещук, Анатолій Пашнін, Роман Чупіс, Олена Бліннікова і Валентина Сова
Аудіо # 3:
мова: українська
озвучення: професійне, багатоголосе закадрове
кодек: 2.0 [dual mono]
бітрейт: 192 кб/с
Інформація про озвучення
Студія «1+1» на замовлення телеканалу "1+1"

Переклад: Тетяни Коробкової
Переклад віршів: Станіслава Чернілевського
Літературний редактор: Олена Ковалевська
Звукорежисер: Олена Мойжес
Режисер: Станіслав Чернілевський
Ролі озвучили: Олена Узлюк, Юрій Коваленко та Максим Кондратюк
Аудіо # 4:
мова: українська
озвучення: професійне, двоголосе закадрове
кодек: 2.0 [dual mono]
бітрейт: 192 кб/с
примітка: звук витягнуто з центрального каналу псевдо 5.1
Інформація про озвучення
Аудіо # 5:
мова: англійська
озвучення: оригінал
кодек: 5.1
бітрейт: 448 кб/с

Субтитри # 1:
мова: українська
тип: програмні (м'які)
формат: *.srt

Субтитри # 2:
мова: українська
тип: програмні (м'які)
формат: *.srt

Субтитри # 3:
мова: англійська
тип: програмні (м'які)
формат: *.srt
Info
General
Unique ID : 240385829641431882639852014674133829015 (0xB4D8A072C59B61B595254A2B0806C597)
Complete name : D:\03. Shrek 2 (2004) AVC [3xUKR_ENG] [Hurtom].
Format :
Format version : Version 4 / Version 2
File size : 2.59 GiB
Duration : 1 h 32 min
Overall bit rate : 4 017 kb/s
Movie name : Шрек 2 / Shrek 2 (2004)
Encoded date : UTC 2021-01-26 19:46:29
Writing application : v51.0.0 ('I Wish') 32-bit
Writing library : libebml v1.4.0 + v1.6.2
Cover : Yes
Attachments : cover.jpg

Video
ID : 1
Format : AVC
Format/Info : Advanced Video Codec
Format profile : [email protected]
Format settings, CABAC : Yes
Format settings, RefFrames : 9 frames
Codec ID : V_MPEG4/ISO/AVC
Duration : 1 h 32 min
Bit rate : 2 990 kb/s
Width : 1 200 pixels
Height : 676 pixels
Display aspect ratio : 16:9
Frame rate mode : Constant
Frame rate : 23.976 (24000/1001) FPS
Color space : YUV
Chroma subsampling : 4:2:0
Bit depth : 8 bits
Scan type : Progressive
Bits/(Pixel*Frame) : 0.154
Stream size : 1.93 GiB (74%)
Writing library : core 114 r1913 5fd3dce
Encoding settings : cabac=1 / ref=9 / deblock=1:-1:-1 / analyse=0x3:0x113 / me=umh / subme=10 / psy=1 / psy_rd=0.80:0.00 / mixed_ref=1 / me_range=32 / chroma_me=1 / trellis=2 / 8x8dct=1 / cqm=0 / deadzone=21,11 / fast_pskip=0 / chroma_qp_offset=-2 / threads=6 / sliced_threads=0 / nr=0 / decimate=1 / interlaced=0 / constrained_intra=0 / bframes=8 / b_pyramid=2 / b_adapt=2 / b_bias=0 / direct=3 / weightb=1 / open_gop=0 / weightp=2 / keyint=250 / keyint_min=23 / scenecut=40 / intra_refresh=0 / rc_lookahead=60 / rc=2pass / mbtree=1 / bitrate=2990 / ratetol=1.0 / qcomp=0.70 / qpmin=0 / qpmax=69 / qpstep=4 / cplxblur=20.0 / qblur=0.5 / vbv_maxrate=50000 / vbv_bufsize=62500 / nal_hrd=none / ip_ratio=1.20 / aq=2:0.70 / zones=119192,121030,b=0.5/122372,132904,b=0.5
Language : English
Default : Yes
Forced : No
Color range : Limited
Matrix coefficients : BT.709

Audio #1
ID : 2
Format : AC-3
Format/Info : Audio Coding 3
Format settings, Endianness : Big
Codec ID : A_AC3
Duration : 1 h 32 min
Bit rate mode : Constant
Bit rate : 192 kb/s
Channel(s) : 2 channels
Channel positions : Front: L R
Sampling rate : 48.0 kHz
Frame rate : 31.250 FPS (1536 SPF)
Bit depth : 16 bits
Compression mode : Lossy
Stream size : 127 MiB (5%)
Title : Kids HD, К1, Інтер
Language : Ukrainian
Service kind : Complete Main
Default : Yes
Forced : Yes

Audio #2
ID : 3
Format : AC-3
Format/Info : Audio Coding 3
Format settings, Endianness : Big
Codec ID : A_AC3
Duration : 1 h 32 min
Bit rate mode : Constant
Bit rate : 192 kb/s
Channel(s) : 2 channels
Channel positions : Front: L R
Sampling rate : 48.0 kHz
Frame rate : 31.250 FPS (1536 SPF)
Bit depth : 16 bits
Compression mode : Lossy
Stream size : 127 MiB (5%)
Title : 1+1
Language : Ukrainian
Service kind : Complete Main
Default : No
Forced : No

Audio #3
ID : 4
Format : AC-3
Format/Info : Audio Coding 3
Format settings, Endianness : Big
Codec ID : A_AC3
Duration : 1 h 32 min
Bit rate mode : Constant
Bit rate : 192 kb/s
Channel(s) : 2 channels
Channel positions : Front: L R
Sampling rate : 48.0 kHz
Frame rate : 31.250 FPS (1536 SPF)
Bit depth : 16 bits
Compression mode : Lossy
Stream size : 127 MiB (5%)
Title : Новий канал
Language : Ukrainian
Service kind : Complete Main
Default : No
Forced : No

Audio #4
ID : 5
Format : AC-3
Format/Info : Audio Coding 3
Format settings, Endianness : Big
Codec ID : A_AC3
Duration : 1 h 32 min
Bit rate mode : Constant
Bit rate : 448 kb/s
Channel(s) : 6 channels
Channel positions : Front: L C R, Side: L R, LFE
Sampling rate : 48.0 kHz
Frame rate : 31.250 FPS (1536 SPF)
Bit depth : 16 bits
Compression mode : Lossy
Stream size : 296 MiB (11%)
Title : Original
Language : English
Service kind : Complete Main
Default : No
Forced : No

Text #1
ID : 6
Format : UTF-8
Codec ID : S_TEXT/UTF8
Codec ID/Info : UTF-8 Plain Text
Duration : 1 h 31 min
Bit rate : 90 b/s
Count of elements : 1136
Stream size : 60.4 KiB (0%)
Title : Full (BD CEE)
Language : Ukrainian
Default : No
Forced : No

Text #2
ID : 7
Format : UTF-8
Codec ID : S_TEXT/UTF8
Codec ID/Info : UTF-8 Plain Text
Duration : 1 h 31 min
Bit rate : 87 b/s
Count of elements : 1144
Stream size : 58.2 KiB (0%)
Title : Full (Netflix)
Language : Ukrainian
Default : No
Forced : No

Text #3
ID : 8
Format : UTF-8
Codec ID : S_TEXT/UTF8
Codec ID/Info : UTF-8 Plain Text
Duration : 1 h 24 min
Bit rate : 69 b/s
Count of elements : 1230
Stream size : 42.7 KiB (0%)
Title : Full
Language : English
Default : No
Forced : No

Menu
00:00:00.000 : en:1. Once upon a time
00:02:32.778 : en:2. Back From Honemoon
00:08:41.980 : en:3. Off to Far Far Away
00:11:09.502 : en:4. Hello Mom and Dad
00:18:54.425 : en:5. Fairy God Mother
00:27:13.507 : en:6. Hire Puss
00:30:23.613 : en:7. Dear Diary
00:32:38.498 : en:8. Meet the Ogre-Killer
00:40:46.277 : en:9. Potion Factory
00:48:07.843 : en:10. Happily Ever After
00:52:30.606 : en:11. True Love Potion
00:56:22.421 : en:12. Changes
01:00:45.308 : en:13. Get Her Back
01:03:37.731 : en:14. Royal Ball
01:04:58.978 : en:15. Arrested
01:07:23.498 : en:16. The Rescue
01:10:50.746 : en:17. The Dance
01:14:20.373 : en:18. Magic Wand
01:18:42.259 : en:19. Midnight Kiss
01:22:09.174 : en:20. Credits
Скріншоти
Особиста оцінка: 9 - давно не бачив настільки якісне кіно
04. Ідол Закрайсвіття / Far Far Away Idol (2004) AVC Ukr/Eng | Sub Eng
Ідол Закрайсвіття / Far Far Away Idol (2004) AVC Ukr/Eng | Sub Eng

Шрек: Повне зібрання / Shrek: Complete Collection (2001-2012) AVC Ukr/Eng | Sub Ukr/Eng


Жанр: анімація, дитячий, сімейний
Країна: США



Кінокомпанія: DreamWorks Animation
Режисер: Саймон Дж. Сміт / Simon J. Smith
Актори: Майк Маєрс / Mike Myers, Едді Мерфі / Eddie Murphy, Камерон Діаз / Cameron Diaz, Антоніо Бандерас / Antonio Banderas Саймон Коуелл / Simon Cowell, Кріс Міллер / Chris Miller, Ларрі Кінг / Larry King та інші

Сюжет:
Пародія на популярне ТВ-шоу «Американський ідол». У конкурсі на кращого виконавця Тридев'ятого королівства беруть участь Шрек, Фіона, Осел, Кіт у чоботях, Капітан Крюк, Доріс і багато інших казкових персонажів. Вибір переможця обіцяє бути непередбачуваним, адже кожен з учасників підготував свій кращий музичний номер.


Тривалість: 00:06:52
Якість:
Відео:
кодек:
розмір кадру: 1024x576
бітрейт: 2 000 кб/с

Аудіо # 1:
мова: українська
озвучення: професійний дубляж
кодек: 2.0
бітрейт: 192 кб/с

Аудіо # 2:
мова: англійська
озвучення: оригінал
кодек: 5.1
бітрейт: 384 кб/с

Субтитри # 1:
мова: англійська
тип: програмні (м'які)
формат: *.srt
Info
General
Unique ID : 245264234324538882116096675309184700177 (0xB8842C5E8581636BD6268007CD114F11)
Complete name : D:\04. Far Far Away Idol (2004) AVC [UKR_ENG] [Hurtom].
Format :
Format version : Version 4 / Version 2
File size : 127 MiB
Duration : 6 min 52 s
Overall bit rate : 2 578 kb/s
Movie name : Ідол Закрайсвіття / Far Far Away Idol (2004)
Encoded date : UTC 2021-01-29 18:40:30
Writing application : v51.0.0 ('I Wish') 32-bit
Writing library : libebml v1.4.0 + v1.6.2
Cover : Yes
Attachments : cover.jpg

Video
ID : 1
Format : AVC
Format/Info : Advanced Video Codec
Format profile : [email protected]
Format settings, CABAC : Yes
Format settings, RefFrames : 9 frames
Codec ID : V_MPEG4/ISO/AVC
Duration : 6 min 52 s
Bit rate : 2 000 kb/s
Width : 1 024 pixels
Height : 576 pixels
Display aspect ratio : 16:9
Frame rate mode : Constant
Frame rate : 23.976 (24000/1001) FPS
Color space : YUV
Chroma subsampling : 4:2:0
Bit depth : 8 bits
Scan type : Progressive
Bits/(Pixel*Frame) : 0.141
Stream size : 98.3 MiB (78%)
Writing library : core 157 r2935 545de2f
Encoding settings : cabac=1 / ref=9 / deblock=1:-1:-1 / analyse=0x3:0x113 / me=umh / subme=11 / psy=1 / psy_rd=1.00:0.15 / mixed_ref=1 / me_range=48 / chroma_me=1 / trellis=2 / 8x8dct=1 / cqm=0 / deadzone=21,11 / fast_pskip=0 / chroma_qp_offset=-5 / threads=18 / lookahead_threads=3 / sliced_threads=0 / nr=0 / decimate=1 / interlaced=0 / bluray_compat=0 / constrained_intra=0 / bframes=8 / b_pyramid=2 / b_adapt=2 / b_bias=0 / direct=1 / weightb=1 / open_gop=0 / weightp=2 / keyint=240 / keyint_min=23 / scenecut=40 / intra_refresh=0 / rc_lookahead=60 / rc=2pass / mbtree=1 / bitrate=2000 / ratetol=1.0 / qcomp=0.60 / qpmin=10 / qpmax=69 / qpstep=4 / cplxblur=20.0 / qblur=0.5 / vbv_maxrate=50000 / vbv_bufsize=62500 / nal_hrd=none / filler=0 / ip_ratio=1.40 / aq=1:1.00
Language : English
Default : Yes
Forced : No

Audio #1
ID : 2
Format : AC-3
Format/Info : Audio Coding 3
Format settings, Endianness : Big
Codec ID : A_AC3
Duration : 6 min 52 s
Bit rate mode : Constant
Bit rate : 192 kb/s
Channel(s) : 2 channels
Channel positions : Front: L R
Sampling rate : 48.0 kHz
Frame rate : 31.250 FPS (1536 SPF)
Bit depth : 16 bits
Compression mode : Lossy
Stream size : 9.45 MiB (7%)
Title : TET
Language : Ukrainian
Service kind : Complete Main
Default : Yes
Forced : Yes

Audio #2
ID : 3
Format : AC-3
Format/Info : Audio Coding 3
Format settings, Endianness : Big
Codec ID : A_AC3
Duration : 6 min 52 s
Bit rate mode : Constant
Bit rate : 384 kb/s
Channel(s) : 6 channels
Channel positions : Front: L C R, Side: L R, LFE
Sampling rate : 48.0 kHz
Frame rate : 31.250 FPS (1536 SPF)
Bit depth : 16 bits
Compression mode : Lossy
Stream size : 18.9 MiB (15%)
Title : Original
Language : English
Service kind : Complete Main
Default : No
Forced : No

Text
ID : 4
Format : UTF-8
Codec ID : S_TEXT/UTF8
Codec ID/Info : UTF-8 Plain Text
Duration : 5 min 59 s
Bit rate : 93 b/s
Count of elements : 119
Stream size : 4.10 KiB (0%)
Title : Full (SDH)
Language : English
Default : No
Forced : No
Скріншоти
Особиста оцінка: 0 - не дивився
05. Шрек Третій / Shrek the Third (2007) AVC 2xUkr/Eng | Sub 2xUkr/Eng
Шрек Третій / Shrek the Third (2007) AVC 2xUkr/Eng | Sub 2xUkr/Eng


Жанр: анімація, пригодницька комедія
Країна: США



Кінокомпанія: DreamWorks Animation, Pacific Data Images (PDI)
Режисер: Кріс Міллер / Chris Miller, Раман Гуі / Raman Hui
Актори: Майк Маєрс / Mike Myers, Едді Мерфі / Eddie Murphy, Камерон Діаз / Cameron Diaz, Антоніо Бандерас / Antonio Banderas, Джулі Ендрюс / Julie Andrews, Джон Кліз / John Cleese та інші

Сюжет:
Коли батько Фіони відійшов у інший світ, Шрек за ідеєю має зайняти його місце, бо він усе ж таки чоловік спадкоємиці. Проте Шрек відмовляється звалювати на свої тендітні плечі непосильний тягар царювання, і тоді вони усі четверо - Шрек, Фіона, Віслюк та Кіт у чоботях вирішують піти на пошуки нового короля. Схоже, що король Артур саме той, хто їм потрібний...


Тривалість: 01:32:46
Якість:
Відео:
кодек:
розмір кадру: 1200x676
бітрейт: 2 990 кб/с

Аудіо # 1:
мова: українська
озвучення: професійний дубляж | Postmodern Postproduction,
кодек: 5.1
бітрейт: 448 кб/с
Інформація про озвучення
Дубльовано студією Postmodern

Режисер дубляжу: Костянтин Лінартович
Асистент режисера дубляжу: Іван Марчекно
Режисер вокалу: Єгор Олєсов
Переклад: Олекси Негребецького
Звукоінженер: Олег Кульчицький
Ролі дублювали: Майк Маєрс/Шрек — Богдан Бенюк, Камерон Діаз/Фіона — Катерина Коновалова, Едді Мерфі/Віслюк — Микола Боклан, Руперт Еверет/Принц Прекрасний — Іван Розін, Антоніо Бандерас/Кіт у чоботях — Андрій Самінін, Джастін Тімберлейк/Арті — Юрій Кудрявець, Ерік Ідл/Мерлін — Олексій Вертінський; а також: Сергій Малюга, Ірина Дорошенко, Костянтин Таран, Єгор Олєсов, Володимир Канівець, Андрій Середа, Олена Узлюк, Ганна Ніколаєнко, Ірина Яценко, Тетяна Зіновенко, Іван Марченко, Євген Ступка, Дмитро Лінартович, Володимир Жогло, Сергій Маліков, Ганна Михайлова, Василь Лебединський, Тетяна Чечило, Катерина Башкіна, Максим Пономарчук, Ольга Данюкова, Дана Метельська, Євген Філатов, Катерина Качан, Іван Семеренський, Дмитро Гарбуз, Поліна Соя.
Аудіо # 2:
мова: українська
озвучення: професійне, багатоголосе закадрове
кодек: 2.0
бітрейт: 192 кб/с

Аудіо # 3:
мова: англійська
озвучення: оригінал
кодек: 5.1
бітрейт: 448 кб/с

Субтитри # 1:
мова: українська
тип: програмні (м'які)
формат: *.srt

Субтитри # 2:
мова: українська
тип: програмні (м'які)
формат: *.srt

Субтитри # 3:
мова: англійська
тип: програмні (м'які)
формат: *.srt
Info
General
Unique ID : 86326198303432527657348846930106044633 (0x40F1D22F01C774E7718BF234F0F8D0D9)
Complete name : D:\05. Shrek the Third (2007) AVC [2xUKR_ENG] [Hurtom].
Format :
Format version : Version 4 / Version 2
File size : 2.64 GiB
Duration : 1 h 32 min
Overall bit rate : 4 081 kb/s
Movie name : Шрек Третій / Shrek the Third (2007)
Encoded date : UTC 2021-01-26 19:39:51
Writing application : v51.0.0 ('I Wish') 32-bit
Writing library : libebml v1.4.0 + v1.6.2
Cover : Yes
Attachments : cover.jpg

Video
ID : 1
Format : AVC
Format/Info : Advanced Video Codec
Format profile : [email protected]
Format settings, CABAC : Yes
Format settings, RefFrames : 9 frames
Codec ID : V_MPEG4/ISO/AVC
Duration : 1 h 32 min
Bit rate : 2 990 kb/s
Width : 1 200 pixels
Height : 676 pixels
Display aspect ratio : 16:9
Frame rate mode : Constant
Frame rate : 23.976 (24000/1001) FPS
Color space : YUV
Chroma subsampling : 4:2:0
Bit depth : 8 bits
Scan type : Progressive
Bits/(Pixel*Frame) : 0.154
Stream size : 1.94 GiB (73%)
Writing library : core 114 r1913 5fd3dce
Encoding settings : cabac=1 / ref=9 / deblock=1:-1:-1 / analyse=0x3:0x113 / me=umh / subme=10 / psy=1 / psy_rd=0.80:0.00 / mixed_ref=1 / me_range=32 / chroma_me=1 / trellis=2 / 8x8dct=1 / cqm=0 / deadzone=21,11 / fast_pskip=0 / chroma_qp_offset=-2 / threads=6 / sliced_threads=0 / nr=0 / decimate=1 / interlaced=0 / constrained_intra=0 / bframes=8 / b_pyramid=2 / b_adapt=2 / b_bias=0 / direct=3 / weightb=1 / open_gop=0 / weightp=2 / keyint=250 / keyint_min=23 / scenecut=40 / intra_refresh=0 / rc_lookahead=60 / rc=2pass / mbtree=1 / bitrate=2990 / ratetol=1.0 / qcomp=0.70 / qpmin=0 / qpmax=69 / qpstep=4 / cplxblur=20.0 / qblur=0.5 / vbv_maxrate=50000 / vbv_bufsize=62500 / nal_hrd=none / ip_ratio=1.20 / aq=2:0.70 / zones=120764,133451,b=0.5
Language : English
Default : Yes
Forced : No
Color range : Limited
Matrix coefficients : BT.709

Audio #1
ID : 2
Format : AC-3
Format/Info : Audio Coding 3
Format settings, Endianness : Big
Codec ID : A_AC3
Duration : 1 h 32 min
Bit rate mode : Constant
Bit rate : 448 kb/s
Channel(s) : 6 channels
Channel positions : Front: L C R, Side: L R, LFE
Sampling rate : 48.0 kHz
Frame rate : 31.250 FPS (1536 SPF)
Bit depth : 16 bits
Compression mode : Lossy
Stream size : 297 MiB (11%)
Title : Postmodern Postproduction
Language : Ukrainian
Service kind : Complete Main
Default : Yes
Forced : Yes

Audio #2
ID : 3
Format : AC-3
Format/Info : Audio Coding 3
Format settings, Endianness : Big
Codec ID : A_AC3
Duration : 1 h 32 min
Bit rate mode : Constant
Bit rate : 192 kb/s
Channel(s) : 2 channels
Channel positions : Front: L R
Sampling rate : 48.0 kHz
Frame rate : 31.250 FPS (1536 SPF)
Bit depth : 16 bits
Compression mode : Lossy
Stream size : 127 MiB (5%)
Title : K1
Language : Ukrainian
Service kind : Complete Main
Default : No
Forced : No

Audio #3
ID : 4
Format : AC-3
Format/Info : Audio Coding 3
Format settings, Endianness : Big
Codec ID : A_AC3
Duration : 1 h 32 min
Bit rate mode : Constant
Bit rate : 448 kb/s
Channel(s) : 6 channels
Channel positions : Front: L C R, Side: L R, LFE
Sampling rate : 48.0 kHz
Frame rate : 31.250 FPS (1536 SPF)
Bit depth : 16 bits
Compression mode : Lossy
Stream size : 297 MiB (11%)
Title : Original
Language : English
Service kind : Complete Main
Default : No
Forced : No

Text #1
ID : 5
Format : UTF-8
Codec ID : S_TEXT/UTF8
Codec ID/Info : UTF-8 Plain Text
Duration : 1 h 24 min
Bit rate : 89 b/s
Count of elements : 1065
Stream size : 55.2 KiB (0%)
Title : Full (BD CEE)
Language : Ukrainian
Default : No
Forced : No

Text #2
ID : 6
Format : UTF-8
Codec ID : S_TEXT/UTF8
Codec ID/Info : UTF-8 Plain Text
Duration : 1 h 31 min
Bit rate : 79 b/s
Count of elements : 1117
Stream size : 53.5 KiB (0%)
Title : Full (Netflix)
Language : Ukrainian
Default : No
Forced : No

Text #3
ID : 7
Format : UTF-8
Codec ID : S_TEXT/UTF8
Codec ID/Info : UTF-8 Plain Text
Duration : 1 h 24 min
Bit rate : 56 b/s
Count of elements : 1125
Stream size : 35.1 KiB (0%)
Title : Full
Language : English
Default : No
Forced : No

Menu
00:00:00.000 : en:1. Dinner Theater
00:03:21.910 : en:2. Far Far Away
00:09:33.030 : en:3. The King Croaks
00:13:49.370 : en:4. Fairy Tale Villains Unite
00:17:29.339 : en:5. Shrek's Nightmare
00:25:13.887 : en:6. Find Arthur
00:32:14.098 : en:7. The Party's Over
00:38:33.728 : en:8. King Artie
00:41:15.014 : en:9. Mr. Merlin
00:49:13.575 : en:10. Rapunzel's Betrayal
00:51:53.235 : en:11. Magic Trip
00:56:49.155 : en:12. Go Go Away
00:59:22.308 : en:13. Captured
01:03:28.262 : en:14. The Queen Rocks
01:07:06.272 : en:15. Team Awesome
01:10:29.183 : en:16. Royal Showdown
01:19:42.277 : en:17. Happily Ever After, After All
01:22:22.771 : en:18. End Credits
Скріншоти
Особиста оцінка: 6 - третій сорт - не брак
06. Дід Мороз, зелений ніс / Shrek the Halls (2007) AVC Ukr/Eng | Sub Ukr/Eng
Дід Мороз, зелений ніс / Shrek the Halls (2007) AVC Ukr/Eng | Sub Ukr/Eng



Жанр: анімація, дитячий, сімейний
Країна: США



Кінокомпанія: DreamWorks Animation, DreamWorks SKG, Pacific Data Images (PDI)
Режисер: Ґері Труздейл / Gary Trousdale
Актори: Майк Маєрс / Mike Myers, Едді Мерфі / Eddie Murphy, Камерон Діаз / Cameron Diaz, Антоніо Бандерас / Antonio Banderas, Шон Бішоп / Sean Bishop, Коуді Камерон / Cody Cameron та інші

Сюжет:
На цей раз Шрек прагне влаштувати ідеальне Різдво для своєї родини, щоб приємно здивувати кохану Фіону і своїх чудових діточок. Та от незадача: Шрек ніколи раніше не святкував Різдва і не знає як це правильно робити. На допомогу йому приходить книжка "Різдво для сільських дурбеликів" і, звичайно, Осел, Кіт у чоботях і вся чесна компанія. А ось що з цього вийшло...


Тривалість: 00:28:01
Якість:
Відео:
кодек:
розмір кадру: 1024x576
бітрейт: 2 000 кб/с

Аудіо # 1:
мова: українська
озвучення: професійний дубляж | Postmodern Postproduction,
кодек: 5.1
бітрейт: 384 кб/с
Інформація про озвучення
Дубльовано студією Postmodern

Перекладач: Роман Дяченко
Режисер дубляжу: Костянтин Лінартович
Ролі дублювали: Шрек — Богдан Бенюк, Едді Мерфі/Віслюк — Микола Боклан, Камерон Діаз/Фіона — Катерина Коновалова, Антоніо Бандерас/Кіт у чоботях — Андрій Самінін, Коржик — Єгор Олєсов, а також: Євген Ступка, Костянтин Таран, Ірина Яценко, Світлана Войт, Сергій Малюга, Володимир Шевяков, Дмитро Завадський, Олена Узлюк
Аудіо # 2:
мова: англійська
переклад: оригінал
кодек: 5.1
бітрейт: 448 кб/с

Субтитри # 1:
мова: українська
переклад:
тип: програмні (м'які)
формат: *.srt

Субтитри # 2:
мова: англійська
тип: програмні (м'які)
формат: *.srt
Info
General
Unique ID : 17643206157222681887797809978873648404 (0xD45F5394872CEB87E23B7E27E229514)
Complete name : D:\06. Shrek the Halls (2007) AVC [UKR_ENG] [Hurtom].
Format :
Format version : Version 4 / Version 2
File size : 568 MiB
Duration : 28 min 1 s
Overall bit rate : 2 835 kb/s
Movie name : Дід Мороз, зелений ніс / Shrek the Halls (2007)
Encoded date : UTC 2021-01-29 18:49:37
Writing application : v51.0.0 ('I Wish') 32-bit
Writing library : libebml v1.4.0 + v1.6.2
Cover : Yes
Attachments : cover.jpg

Video
ID : 1
Format : AVC
Format/Info : Advanced Video Codec
Format profile : [email protected]
Format settings, CABAC : Yes
Format settings, RefFrames : 9 frames
Codec ID : V_MPEG4/ISO/AVC
Duration : 28 min 1 s
Bit rate : 2 000 kb/s
Width : 1 024 pixels
Height : 576 pixels
Display aspect ratio : 16:9
Frame rate mode : Constant
Frame rate : 23.976 (24000/1001) FPS
Color space : YUV
Chroma subsampling : 4:2:0
Bit depth : 8 bits
Scan type : Progressive
Bits/(Pixel*Frame) : 0.141
Stream size : 401 MiB (71%)
Writing library : core 157 r2935 545de2f
Encoding settings : cabac=1 / ref=9 / deblock=1:-1:-1 / analyse=0x3:0x113 / me=umh / subme=11 / psy=1 / psy_rd=1.00:0.15 / mixed_ref=1 / me_range=48 / chroma_me=1 / trellis=2 / 8x8dct=1 / cqm=0 / deadzone=21,11 / fast_pskip=0 / chroma_qp_offset=-5 / threads=18 / lookahead_threads=3 / sliced_threads=0 / nr=0 / decimate=1 / interlaced=0 / bluray_compat=0 / constrained_intra=0 / bframes=8 / b_pyramid=2 / b_adapt=2 / b_bias=0 / direct=1 / weightb=1 / open_gop=0 / weightp=2 / keyint=240 / keyint_min=23 / scenecut=40 / intra_refresh=0 / rc_lookahead=60 / rc=2pass / mbtree=1 / bitrate=2000 / ratetol=1.0 / qcomp=0.60 / qpmin=10 / qpmax=69 / qpstep=4 / cplxblur=20.0 / qblur=0.5 / vbv_maxrate=50000 / vbv_bufsize=62500 / nal_hrd=none / filler=0 / ip_ratio=1.40 / aq=1:1.00
Language : English
Default : Yes
Forced : No

Audio #1
ID : 2
Format : AC-3
Format/Info : Audio Coding 3
Format settings, Endianness : Big
Codec ID : A_AC3
Duration : 28 min 1 s
Bit rate mode : Constant
Bit rate : 384 kb/s
Channel(s) : 6 channels
Channel positions : Front: L C R, Side: L R, LFE
Sampling rate : 48.0 kHz
Frame rate : 31.250 FPS (1536 SPF)
Bit depth : 16 bits
Compression mode : Lossy
Stream size : 77.0 MiB (14%)
Title : Postmodern Postproduction
Language : Ukrainian
Service kind : Complete Main
Default : Yes
Forced : Yes

Audio #2
ID : 3
Format : AC-3
Format/Info : Audio Coding 3
Format settings, Endianness : Big
Codec ID : A_AC3
Duration : 27 min 59 s
Bit rate mode : Constant
Bit rate : 448 kb/s
Channel(s) : 6 channels
Channel positions : Front: L C R, Side: L R, LFE
Sampling rate : 48.0 kHz
Frame rate : 31.250 FPS (1536 SPF)
Bit depth : 16 bits
Compression mode : Lossy
Stream size : 89.7 MiB (16%)
Title : Original
Language : English
Service kind : Complete Main
Default : No
Forced : No

Text #1
ID : 4
Format : UTF-8
Codec ID : S_TEXT/UTF8
Codec ID/Info : UTF-8 Plain Text
Duration : 21 min 2 s
Bit rate : 123 b/s
Count of elements : 353
Stream size : 19.0 KiB (0%)
Title : Full
Language : Ukrainian
Default : No
Forced : No

Text #2
ID : 5
Format : UTF-8
Codec ID : S_TEXT/UTF8
Codec ID/Info : UTF-8 Plain Text
Duration : 20 min 54 s
Bit rate : 87 b/s
Count of elements : 340
Stream size : 13.3 KiB (0%)
Title : Full
Language : English
Default : No
Forced : No

Text #3
ID : 6
Format : UTF-8
Codec ID : S_TEXT/UTF8
Codec ID/Info : UTF-8 Plain Text
Duration : 21 min 7 s
Bit rate : 95 b/s
Count of elements : 375
Stream size : 14.8 KiB (0%)
Title : Full (SDH)
Language : English
Default : No
Forced : No

Menu
00:00:00.000 : en:00:00:00.000
00:21:32.958 : en:00:21:32.958
Скріншоти
Особиста оцінка: 0 - не дивився
07. Шрек Назавжди / Shrek Forever After (2010) AVC Ukr/Eng | Sub 2xUkr/Eng
Шрек Назавжди / Shrek Forever After (2010) AVC Ukr/Eng | Sub 2xUkr/Eng


Жанр: анімація, пригодницька комедія
Країна: США



Кінокомпанія: DreamWorks Animation, Pacific Data Images (PDI)
Режисер: Майк Мітчел / Mike Mitchell
Актори: Майк Мітчел / Mike Mitchell, Едді Мерфі / Eddie Murphy, Камерон Діаз / Cameron Diaz, Антоніо Бандерас / Antonio Banderas, Джон Кліз / John Cleese та інші

Сюжет:
Під тягарем спогадів про дні, коли Шрек відчував себе «справжнім огром», він піддається на вмовляння солодкоголосого Румпельштільцхена і укладає з ним договір. Відразу після цього Шрек опиняється в альтернативній реальності Тридев'ятого королівства, де все поставлено з ніг на голову: на огрів тут полюють, Румпельштільцхен сидить на троні, а Шрек і Фіона навіть не знайомі. І тепер тільки сам Шрек може виправити все, що він накоїв, щоб врятувати друзів, відновити звичний йому порядок речей і повернути собі свою єдину Справжню Любов.


Тривалість: 01:33:10
Якість:
Відео:
кодек:
розмір кадру: 1280x544
бітрейт: 2 960 кб/с

Аудіо # 1:
мова: українська
озвучення: професійний дубляж | Postmodern Postproduction,
кодек: 5.1
бітрейт: 448 кб/с
Інформація про озвучення
Мультфільм надано компанією Paramount Pictures дубльовано на замовлення B&H Film Distribution студією Postmodern

Режисер дубляжу: Костянтин Лінартович
Вокальний режисер: Максим Пономарчук
Переклад і укладка тексту: Олекси Негребецького
Звукорежисер: Олександр Козярук
Менеджер проекту: Ірина Туловська
Ролі дублювали: Майк Маєрс/Шрек — Богдан Бенюк, Камерон Діаз/Фіона — Катерина Коновалова, Еді Мерфі/Віслюк — Микола Боклан, Віслюк(спів) — Дмитро Гарбуз, Антоніо Бандерас/Кіт у чоботях — Андрій Самінін, Волт Дорн/Румпельштільхен — Юрій Коваленко, Джон Кліз/Король Гарольд — Костянтин Таран, Королева Ліліан — Ірина Дорошенко, Коді Камерон/Піноккіо — Сергій Малюга, Джон Ґемм/Броґан — Дмитро Лінартович, Кука — Сергій Солопай, Коржик — Єгор Олєсов, Відьми: Ірина Яценко, Людмила Барбір, Наталя Коваль та інші.
Аудіо # 2:
мова: англійська
озвучення: оригінал
кодек: 5.1
бітрейт: 448 кб/с

Субтитри # 1:
мова: українська
тип: програмні (м'які)
формат: *.srt

Субтитри # 2:
мова: українська
тип: програмні (м'які)
формат: *.srt

Субтитри # 3:
мова: англійська
тип: програмні (м'які)
формат: *.srt
Info
General
Unique ID : 280760269614941657503004091387321233452 (0xD33876070440A4C9760192C91307B02C)
Complete name : D:\07. Shrek Forever After (2010) AVC [UKR_ENG] [Hurtom].
Format :
Format version : Version 4 / Version 2
File size : 2.51 GiB
Duration : 1 h 33 min
Overall bit rate : 3 858 kb/s
Movie name : Шрек Назавжди / Shrek Forever After (2010)
Encoded date : UTC 2021-01-26 20:33:38
Writing application : v51.0.0 ('I Wish') 32-bit
Writing library : libebml v1.4.0 + v1.6.2
Cover : Yes
Attachments : cover.jpg

Video
ID : 1
Format : AVC
Format/Info : Advanced Video Codec
Format profile : [email protected]
Format settings, CABAC : Yes
Format settings, RefFrames : 9 frames
Codec ID : V_MPEG4/ISO/AVC
Duration : 1 h 33 min
Bit rate : 2 960 kb/s
Width : 1 280 pixels
Height : 544 pixels
Display aspect ratio : 2.35:1
Frame rate mode : Constant
Frame rate : 23.976 (24000/1001) FPS
Color space : YUV
Chroma subsampling : 4:2:0
Bit depth : 8 bits
Scan type : Progressive
Bits/(Pixel*Frame) : 0.177
Stream size : 1.93 GiB (77%)
Writing library : core 107 r1772 c9dad9e
Encoding settings : cabac=1 / ref=9 / deblock=1:-1:-1 / analyse=0x3:0x113 / me=umh / subme=10 / psy=1 / psy_rd=0.80:0.07 / mixed_ref=1 / me_range=32 / chroma_me=1 / trellis=2 / 8x8dct=1 / cqm=0 / deadzone=21,11 / fast_pskip=1 / chroma_qp_offset=-3 / threads=6 / sliced_threads=0 / nr=0 / decimate=1 / interlaced=0 / constrained_intra=0 / bframes=9 / b_pyramid=2 / b_adapt=2 / b_bias=0 / direct=3 / weightb=1 / open_gop=0 / weightp=2 / keyint=250 / keyint_min=23 / scenecut=40 / intra_refresh=0 / rc_lookahead=60 / rc=2pass / mbtree=1 / bitrate=2960 / ratetol=1.0 / qcomp=0.70 / qpmin=10 / qpmax=51 / qpstep=4 / cplxblur=20.0 / qblur=0.5 / vbv_maxrate=50000 / vbv_bufsize=62500 / ip_ratio=1.40 / aq=2:0.80 / nal_hrd=none
Language : English
Default : Yes
Forced : No
Color range : Limited
Matrix coefficients : BT.709

Audio #1
ID : 2
Format : AC-3
Format/Info : Audio Coding 3
Format settings, Endianness : Big
Codec ID : A_AC3
Duration : 1 h 33 min
Bit rate mode : Constant
Bit rate : 448 kb/s
Channel(s) : 6 channels
Channel positions : Front: L C R, Side: L R, LFE
Sampling rate : 48.0 kHz
Frame rate : 31.250 FPS (1536 SPF)
Bit depth : 16 bits
Compression mode : Lossy
Stream size : 299 MiB (12%)
Title : Postmodern Postproduction
Language : Ukrainian
Service kind : Complete Main
Default : Yes
Forced : Yes

Audio #2
ID : 3
Format : AC-3
Format/Info : Audio Coding 3
Format settings, Endianness : Big
Codec ID : A_AC3
Duration : 1 h 33 min
Bit rate mode : Constant
Bit rate : 448 kb/s
Channel(s) : 6 channels
Channel positions : Front: L C R, Side: L R, LFE
Sampling rate : 48.0 kHz
Frame rate : 31.250 FPS (1536 SPF)
Bit depth : 16 bits
Compression mode : Lossy
Stream size : 299 MiB (12%)
Title : Original
Language : English
Service kind : Complete Main
Default : No
Forced : No

Text #1
ID : 4
Format : UTF-8
Codec ID : S_TEXT/UTF8
Codec ID/Info : UTF-8 Plain Text
Duration : 1 h 22 min
Bit rate : 96 b/s
Count of elements : 1043
Stream size : 58.0 KiB (0%)
Title : Full (BD CEE)
Language : Ukrainian
Default : No
Forced : No

Text #2
ID : 5
Format : UTF-8
Codec ID : S_TEXT/UTF8
Codec ID/Info : UTF-8 Plain Text
Duration : 1 h 32 min
Bit rate : 88 b/s
Count of elements : 1011
Stream size : 60.0 KiB (0%)
Title : Full (Netflix)
Language : Ukrainian
Default : No
Forced : No

Text #3
ID : 6
Format : UTF-8
Codec ID : S_TEXT/UTF8
Codec ID/Info : UTF-8 Plain Text
Duration : 1 h 32 min
Bit rate : 53 b/s
Count of elements : 1039
Stream size : 35.9 KiB (0%)
Title : Full
Language : English
Default : No
Forced : No

Menu
00:00:00.000 : en:Chapter 1
00:04:47.786 : en:Chapter 2
00:08:39.935 : en:Chapter 3
00:14:51.724 : en:Chapter 4
00:19:51.190 : en:Chapter 5
00:24:43.315 : en:Chapter 6
00:33:22.333 : en:Chapter 7
00:41:11.469 : en:Chapter 8
00:44:51.271 : en:Chapter 9
00:48:32.451 : en:Chapter 10
00:51:31.630 : en:Chapter 11
00:53:02.387 : en:Chapter 12
00:58:25.960 : en:Chapter 13
01:03:13.747 : en:Chapter 14
01:05:48.861 : en:Chapter 15
01:12:34.475 : en:Chapter 16
01:20:00.420 : en:Chapter 17
01:23:13.822 : en:Chapter 18
Скріншоти
Особиста оцінка: 6 - третій сорт - не брак
08. Налякані до шрекавки / Обшрекатися від переляку / Scared Shrekless (2010) AVC 2хUkr/Eng | Sub Eng
Налякані до шрекавки / Обшрекатися від переляку / Scared Shrekless (2010) AVC 2хUkr/Eng | Sub Eng

Українські постери:





Жанр: анімація, дитячий, сімейний
Країна: США



Кінокомпанія: DreamWorks Animation
Режисер: Ґері Труздейл / Gary Trousdale, Раман Гуі / Raman Hui
Актори: Майк Маєрс / Mike Myers, Камерон Діаз / Cameron Diaz, Антоніо Бандерас / Antonio Banderas, Дін Едвардс / Dean Edwards, Коуді Камерон / Cody Cameron, Крістофер Найтс / Christopher Knights, Конрад Вернон / Conrad Vernon, Арон Ворнер / Aron Warner та інші
Сюжет:
Спеціальний показ Шрека, присвячений до Гелловіну. Гелловін – його улюблене свято, й у цьому році він планує ніч лякань у притаманному до людоїдів стилю. Шрек підбиває Фіону, Віслюка, Кота у чоботях та інших казкових персонажів провести ніч у колишньому замку лорда Фаркуада й порозповідати страшилки. Останній, хто обшрекається від переляку, переможе.


Тривалість: 00:25:33
Якість:
Відео:
кодек:
розмір кадру: 1024x576
бітрейт: 2 000 кб/с

Аудіо # 1:
мова: українська
озвучення: професійний дубляж | Postmodern Postproduction, &
кодек: 2.0
бітрейт: 192 кб/с
Інформація про озвучення
Мультфільм надано компанією Paramount Pictures дубльовано на замовлення B&H Film Distribution студією Postmodern

Переклад і укладка тексту: Олекси Негребецького
Режисер дубляжу: Костянтин Лінартович
Звукорежисер: Олександр Козярук
Вокальний режисер: Максим Пономарчук
Менеджер проекту: Ірина Туловська
Ролі дублювали: Майк Маєрс/Шрек — Богдан Бенюк, Камерон Діаз/Фіона — Катерина Коновалова, Еді Мерфі/Віслюк — Микола Боклан, Віслюк (спів) — Дмитро Гарбуз, Антоніо Бандерас/Кіт у чоботях — Андрій Самінін, Волт Дорн/Румпельштільхен — Юрій Коваленко, Джон Кліз/Король Гарольд — Костянтин Таран, Королева Ліліан — Ірина Дорошенко, Коді Камерон/Піноккіо — Сергій Малюга, Джон Ґем/Броґан — Дмитро Лінартович, Кука — Сергій Солопай, Коржик — Єгор Олєсов, Відьми: Ірина Яценко, Людмила Барбір, Наталя Коваль та інші.
Аудіо # 2:
мова: українська
озвучення: любитильське, багатоголосе закадрове
кодек: 2.0
бітрейт: 192 кб/с

Аудіо # 3:
мова: англійська
озвучення: оригінал
кодек: 5.1
бітрейт: 448 кб/с

Субтитри:
мова: англійська
тип: програмні (м'які)
формат: *.srt
Info
General
Unique ID : 171682883495940429347327317211020103806 (0x8128EBAE2B4216F9128B8CFD6665907E)
Complete name : D:\08. Scared Shrekless (2010) AVC [2xUKR_ENG] [Hurtom].
Format :
Format version : Version 4 / Version 2
File size : 426 MiB
Duration : 21 min 1 s
Overall bit rate : 2 833 kb/s
Movie name : Налякані до шрекавки / Обшрекатися від переляку / Scared Shrekless (2010)
Encoded date : UTC 2021-01-29 19:24:41
Writing application : v51.0.0 ('I Wish') 32-bit
Writing library : libebml v1.4.0 + v1.6.2
Cover : Yes
Attachments : cover.jpg

Video
ID : 1
Format : AVC
Format/Info : Advanced Video Codec
Format profile : [email protected]
Format settings, CABAC : Yes
Format settings, RefFrames : 9 frames
Codec ID : V_MPEG4/ISO/AVC
Duration : 21 min 1 s
Bit rate : 2 000 kb/s
Width : 1 024 pixels
Height : 576 pixels
Display aspect ratio : 16:9
Frame rate mode : Constant
Frame rate : 23.976 (24000/1001) FPS
Color space : YUV
Chroma subsampling : 4:2:0
Bit depth : 8 bits
Scan type : Progressive
Bits/(Pixel*Frame) : 0.141
Stream size : 301 MiB (71%)
Writing library : core 157 r2935 545de2f
Encoding settings : cabac=1 / ref=9 / deblock=1:-1:-1 / analyse=0x3:0x113 / me=umh / subme=11 / psy=1 / psy_rd=1.00:0.15 / mixed_ref=1 / me_range=48 / chroma_me=1 / trellis=2 / 8x8dct=1 / cqm=0 / deadzone=21,11 / fast_pskip=0 / chroma_qp_offset=-5 / threads=18 / lookahead_threads=3 / sliced_threads=0 / nr=0 / decimate=1 / interlaced=0 / bluray_compat=0 / constrained_intra=0 / bframes=8 / b_pyramid=2 / b_adapt=2 / b_bias=0 / direct=1 / weightb=1 / open_gop=0 / weightp=2 / keyint=240 / keyint_min=23 / scenecut=40 / intra_refresh=0 / rc_lookahead=60 / rc=2pass / mbtree=1 / bitrate=2000 / ratetol=1.0 / qcomp=0.60 / qpmin=10 / qpmax=69 / qpstep=4 / cplxblur=20.0 / qblur=0.5 / vbv_maxrate=50000 / vbv_bufsize=62500 / nal_hrd=none / filler=0 / ip_ratio=1.40 / aq=1:1.00
Language : English
Default : Yes
Forced : No

Audio #1
ID : 2
Format : AC-3
Format/Info : Audio Coding 3
Format settings, Endianness : Big
Codec ID : A_AC3
Duration : 21 min 1 s
Bit rate mode : Constant
Bit rate : 192 kb/s
Channel(s) : 2 channels
Channel positions : Front: L R
Sampling rate : 48.0 kHz
Frame rate : 31.250 FPS (1536 SPF)
Bit depth : 16 bits
Compression mode : Lossy
Stream size : 28.9 MiB (7%)
Title : Postmodern Postproduction
Language : Ukrainian
Service kind : Complete Main
Default : Yes
Forced : Yes

Audio #2
ID : 3
Format : AC-3
Format/Info : Audio Coding 3
Format settings, Endianness : Big
Codec ID : A_AC3
Duration : 21 min 1 s
Bit rate mode : Constant
Bit rate : 192 kb/s
Channel(s) : 2 channels
Channel positions : Front: L R
Sampling rate : 48.0 kHz
Frame rate : 31.250 FPS (1536 SPF)
Bit depth : 16 bits
Compression mode : Lossy
Stream size : 28.9 MiB (7%)
Title : VSTeam
Language : Ukrainian
Service kind : Complete Main
Default : No
Forced : No

Audio #3
ID : 4
Format : AC-3
Format/Info : Audio Coding 3
Format settings, Endianness : Big
Codec ID : A_AC3
Duration : 21 min 1 s
Bit rate mode : Constant
Bit rate : 448 kb/s
Channel(s) : 6 channels
Channel positions : Front: L C R, Side: L R, LFE
Sampling rate : 48.0 kHz
Frame rate : 31.250 FPS (1536 SPF)
Bit depth : 16 bits
Compression mode : Lossy
Stream size : 67.4 MiB (16%)
Title : Original
Language : English
Service kind : Complete Main
Default : No
Forced : No

Text
ID : 5
Format : UTF-8
Codec ID : S_TEXT/UTF8
Codec ID/Info : UTF-8 Plain Text
Duration : 20 min 41 s
Bit rate : 89 b/s
Count of elements : 494
Stream size : 13.6 KiB (0%)
Title : Full
Language : English
Default : No
Forced : No
Скріншоти
Особиста оцінка: 0 - не дивився
09. Різдвяний шректакль віслюка / Donkey's Christmas Shrektacular (2010) AVC Ukr/Eng | Sub Eng
Різдвяний шректакль віслюка / Donkey's Christmas Shrektacular (2010) AVC Ukr/Eng | Sub Eng



Жанр: анімація, дитячий, сімейний
Країна: США



Кінокомпанія: DreamWorks Animation
Режисер: Волт Дорн / Walt Dohrn, Раман Гуі / Raman Hui
Актори: Майк Маєрс / Mike Myers, Едді Мерфі / Eddie Murphy, Камерон Діаз / Cameron Diaz, Антоніо Бандерас / Antonio Banderas, Волт Дорн / Walt Dohrn та інші

Сюжет:
Що може бути краще ніж зібратися на Різдво всім друзям будинку біля теплого каміна? Залиште свої телевізори включеними, накривайте Різдвяний стіл і в той же час поглядайте в бік телевізора, це допоможе вам створити неймовірну атмосферу свята разом з вашими улюбленими мульт-персонажами, а їх тут більше 25.


Тривалість: 00:07:46
Якість:
Відео:
кодек:
розмір кадру: 1024x576
бітрейт: 2 000 кб/с

Аудіо # 1:
мова: українська
озвучення: професійний дубляж
кодек: 2.0
бітрейт: 192 кб/с

Аудіо # 2:
мова: англійська
озвучення: оригінал
кодек: 2.0
бітрейт: 192 кб/с

Субтитри # 1:
мова: англійська
тип: програмні (м'які)
формат: *.srt
Info
General
Unique ID : 142465869723772977177398160504568626251 (0x6B2DEDAF411A5EF2D0256C0DE72B3C4B)
Complete name : D:\09. Donkey's Christmas Shrektacular (2010) AVC [UKR_ENG] [Hurtom].
Format :
Format version : Version 4 / Version 2
File size : 133 MiB
Duration : 7 min 46 s
Overall bit rate : 2 397 kb/s
Movie name : Різдвяний шректакль віслюка / Donkey's Christmas Shrektacular (2010)
Encoded date : UTC 2021-01-29 19:07:26
Writing application : v51.0.0 ('I Wish') 32-bit
Writing library : libebml v1.4.0 + v1.6.2
Cover : Yes
Attachments : cover.jpg

Video
ID : 1
Format : AVC
Format/Info : Advanced Video Codec
Format profile : [email protected]
Format settings, CABAC : Yes
Format settings, RefFrames : 9 frames
Codec ID : V_MPEG4/ISO/AVC
Duration : 7 min 46 s
Bit rate : 2 000 kb/s
Width : 1 024 pixels
Height : 576 pixels
Display aspect ratio : 16:9
Frame rate mode : Constant
Frame rate : 23.976 (24000/1001) FPS
Color space : YUV
Chroma subsampling : 4:2:0
Bit depth : 8 bits
Scan type : Progressive
Bits/(Pixel*Frame) : 0.141
Stream size : 112 MiB (84%)
Writing library : core 157 r2935 545de2f
Encoding settings : cabac=1 / ref=9 / deblock=1:-1:-1 / analyse=0x3:0x113 / me=umh / subme=11 / psy=1 / psy_rd=1.00:0.15 / mixed_ref=1 / me_range=48 / chroma_me=1 / trellis=2 / 8x8dct=1 / cqm=0 / deadzone=21,11 / fast_pskip=0 / chroma_qp_offset=-5 / threads=18 / lookahead_threads=3 / sliced_threads=0 / nr=0 / decimate=1 / interlaced=0 / bluray_compat=0 / constrained_intra=0 / bframes=8 / b_pyramid=2 / b_adapt=2 / b_bias=0 / direct=1 / weightb=1 / open_gop=0 / weightp=2 / keyint=240 / keyint_min=23 / scenecut=40 / intra_refresh=0 / rc_lookahead=60 / rc=2pass / mbtree=1 / bitrate=2000 / ratetol=1.0 / qcomp=0.60 / qpmin=10 / qpmax=69 / qpstep=4 / cplxblur=20.0 / qblur=0.5 / vbv_maxrate=50000 / vbv_bufsize=62500 / nal_hrd=none / filler=0 / ip_ratio=1.40 / aq=1:1.00
Language : English
Default : Yes
Forced : No

Audio #1
ID : 2
Format : AC-3
Format/Info : Audio Coding 3
Format settings, Endianness : Big
Codec ID : A_AC3
Duration : 7 min 46 s
Bit rate mode : Constant
Bit rate : 192 kb/s
Channel(s) : 2 channels
Channel positions : Front: L R
Sampling rate : 48.0 kHz
Frame rate : 31.250 FPS (1536 SPF)
Bit depth : 16 bits
Compression mode : Lossy
Stream size : 10.7 MiB (8%)
Title : TET
Language : Ukrainian
Service kind : Complete Main
Default : Yes
Forced : Yes

Audio #2
ID : 3
Format : AC-3
Format/Info : Audio Coding 3
Format settings, Endianness : Big
Codec ID : A_AC3
Duration : 7 min 46 s
Bit rate mode : Constant
Bit rate : 192 kb/s
Channel(s) : 2 channels
Channel positions : Front: L R
Sampling rate : 48.0 kHz
Frame rate : 31.250 FPS (1536 SPF)
Bit depth : 16 bits
Compression mode : Lossy
Stream size : 10.7 MiB (8%)
Title : Original
Language : English
Service kind : Complete Main
Default : No
Forced : No

Text #1
ID : 4
Format : UTF-8
Codec ID : S_TEXT/UTF8
Codec ID/Info : UTF-8 Plain Text
Duration : 5 min 5 s
Bit rate : 95 b/s
Count of elements : 98
Stream size : 3.56 KiB (0%)
Title : Full
Language : English
Default : No
Forced : No

Text #2
ID : 5
Format : UTF-8
Codec ID : S_TEXT/UTF8
Codec ID/Info : UTF-8 Plain Text
Duration : 5 min 8 s
Bit rate : 109 b/s
Count of elements : 104
Stream size : 4.14 KiB (0%)
Title : Full (SDH)
Language : English
Default : No
Forced : No
Скріншоти
Особиста оцінка: 0 - не дивився
10. Шрек. Страшилка / Shrek. Thriller Night (2011) AVC Ukr/Eng | Sub Ukr/Eng
Шрек. Страшилка / Shrek. Thriller Night (2011) AVC Ukr/Eng | Sub Ukr/Eng

Шрек: Повне зібрання / Shrek: Complete Collection (2001-2012) AVC Ukr/Eng | Sub Ukr/Eng


Жанр: анімація, жахи, мюзикл, комедія
Країна: США



Кінокомпанія: DreamWorks Animation
Режисер: Гері Трауздейл / Gary Trousdale, Шон Бішоп / Sean Bishop
Актори: Майкл Ґоу / Michael Gough, Дін Едвардс / Dean Edwards, Голлі Філдс / Holly Fields, Андре Согліуззо / Andre Sogliuzzo та ін.

Сюжет:
Шреку наскучив буденний Гелоуін, йому захотілося чогось насправді страшного. Сила "Страшилки" дала йому більше, ніж він очікував ...


Тривалість: 00:06:09
Якість:
Відео:
кодек:
розмір кадру: 1024x576
бітрейт: 2 000 кб/с

Аудіо # 1:
мова: українська
озвучення: любительське, двоголосе закадрове | UkrVoiceTeam
кодек: 2.0
бітрейт: 192 кб/с

Аудіо # 2:
мова: англійська
озвучення: оригінал
кодек: 5.1
бітрейт: 448 кб/с

Субтитри # 1:
мова: українська
переклад: somnambula
тип: програмні (м'які)
формат: *.srt

Субтитри # 2:
мова: англійська
тип: програмні (м'які)
формат: *.srt
Info
General
Unique ID : 289032028311592871301046597907717219681 (0xD9718B37DE336DB5FCE4417243B6E561)
Complete name : D:\10. Shrek Thriller Night (2011) AVC [UKR_ENG] [Hurtom].
Format :
Format version : Version 4 / Version 2
File size : 117 MiB
Duration : 6 min 9 s
Overall bit rate : 2 648 kb/s
Movie name : Шрек. Страшилка / Shrek. Thriller Night (2011)
Encoded date : UTC 2021-01-29 19:29:56
Writing application : v51.0.0 ('I Wish') 32-bit
Writing library : libebml v1.4.0 + v1.6.2
Cover : Yes
Attachments : cover.jpg

Video
ID : 1
Format : AVC
Format/Info : Advanced Video Codec
Format profile : [email protected]
Format settings, CABAC : Yes
Format settings, RefFrames : 9 frames
Codec ID : V_MPEG4/ISO/AVC
Duration : 6 min 9 s
Bit rate : 2 000 kb/s
Width : 1 024 pixels
Height : 576 pixels
Display aspect ratio : 16:9
Frame rate mode : Constant
Frame rate : 23.976 (24000/1001) FPS
Color space : YUV
Chroma subsampling : 4:2:0
Bit depth : 8 bits
Scan type : Progressive
Bits/(Pixel*Frame) : 0.141
Stream size : 88.4 MiB (76%)
Writing library : core 157 r2935 545de2f
Encoding settings : cabac=1 / ref=9 / deblock=1:-1:-1 / analyse=0x3:0x113 / me=umh / subme=11 / psy=1 / psy_rd=1.00:0.15 / mixed_ref=1 / me_range=48 / chroma_me=1 / trellis=2 / 8x8dct=1 / cqm=0 / deadzone=21,11 / fast_pskip=0 / chroma_qp_offset=-5 / threads=18 / lookahead_threads=3 / sliced_threads=0 / nr=0 / decimate=1 / interlaced=0 / bluray_compat=0 / constrained_intra=0 / bframes=8 / b_pyramid=2 / b_adapt=2 / b_bias=0 / direct=1 / weightb=1 / open_gop=0 / weightp=2 / keyint=240 / keyint_min=23 / scenecut=40 / intra_refresh=0 / rc_lookahead=60 / rc=2pass / mbtree=1 / bitrate=2000 / ratetol=1.0 / qcomp=0.60 / qpmin=10 / qpmax=69 / qpstep=4 / cplxblur=20.0 / qblur=0.5 / vbv_maxrate=50000 / vbv_bufsize=62500 / nal_hrd=none / filler=0 / ip_ratio=1.40 / aq=1:1.00
Default : Yes
Forced : No

Audio #1
ID : 2
Format : AC-3
Format/Info : Audio Coding 3
Format settings, Endianness : Big
Codec ID : A_AC3
Duration : 6 min 9 s
Bit rate mode : Constant
Bit rate : 192 kb/s
Channel(s) : 2 channels
Channel positions : Front: L R
Sampling rate : 48.0 kHz
Frame rate : 31.250 FPS (1536 SPF)
Bit depth : 16 bits
Compression mode : Lossy
Stream size : 8.46 MiB (7%)
Title : UkrVoiceTeam
Language : Ukrainian
Service kind : Complete Main
Default : Yes
Forced : Yes

Audio #2
ID : 3
Format : AC-3
Format/Info : Audio Coding 3
Format settings, Endianness : Big
Codec ID : A_AC3
Duration : 6 min 9 s
Bit rate mode : Constant
Bit rate : 448 kb/s
Channel(s) : 6 channels
Channel positions : Front: L C R, Side: L R, LFE
Sampling rate : 48.0 kHz
Frame rate : 31.250 FPS (1536 SPF)
Bit depth : 16 bits
Compression mode : Lossy
Stream size : 19.7 MiB (17%)
Title : Original
Language : English
Service kind : Complete Main
Default : No
Forced : No

Text #1
ID : 4
Format : UTF-8
Codec ID : S_TEXT/UTF8
Codec ID/Info : UTF-8 Plain Text
Duration : 4 min 40 s
Bit rate : 125 b/s
Count of elements : 82
Stream size : 4.29 KiB (0%)
Title : Full
Language : Ukrainian
Default : No
Forced : No

Text #2
ID : 5
Format : UTF-8
Codec ID : S_TEXT/UTF8
Codec ID/Info : UTF-8 Plain Text
Duration : 4 min 42 s
Bit rate : 71 b/s
Count of elements : 81
Stream size : 2.45 KiB (0%)
Title : Full
Language : English
Default : No
Forced : No

Text #3
ID : 6
Format : UTF-8
Codec ID : S_TEXT/UTF8
Codec ID/Info : UTF-8 Plain Text
Duration : 5 min 1 s
Bit rate : 85 b/s
Count of elements : 96
Stream size : 3.14 KiB (0%)
Title : Full (SDH)
Language : English
Default : No
Forced : No
Скріншоти
Особиста оцінка: 0 - не дивився
11. Порося, що кричало: Вовк! Вовкулака! / The Pig Who Cried Werewolf (2011) AVC Ukr/Eng | Sub Eng
Порося, що кричало: Вовк! Вовкулака! / The Pig Who Cried Werewolf (2011) AVC Ukr/Eng | Sub Eng

Шрек: Повне зібрання / Shrek: Complete Collection (2001-2012) AVC Ukr/Eng | Sub Ukr/Eng
Оригінальний постер:



Жанр: анімація, дитячий, сімейний
Країна: США



Кінокомпанія: DreamWorks Animation
Режисер: Ґері Траусдейл / Gary Trousdale
Актори: Шон Бішоп / Sean Bishop, Коуді Камерон / Cody Cameron, Арон Ворнер / Aron Warner

Сюжет:
Хаймл, один із знаменитих Трьох Поросят, шукає змову на кожному розі. Коли Великий Сірий Вовк входить до сусідських дверей, Хаймл поспішає попередити своїх приятелів Хорста і Дітера, що навряд чи це закінчиться "казково".


Тривалість: 00:06:48
Якість:
Відео:
кодек:
розмір кадру: 1024x570
бітрейт: 2000 кб/с

Аудіо # 1:
мова: українська
озвучення: професійний дубляж
кодек: 2.0
бітрейт: 192 кб/с

Аудіо # 2:
мова: англійська
озвучення: оригінал
кодек: 5.1
бітрейт: 448 кб/с

Субтитри # 1:
мова: англійська
тип: програмні (м'які)
формат: *.srt
Info
General
Unique ID : 106926702718450332231865506237404998093 (0x50715577FAFB3C3C2CFC95BE4C24E9CD)
Complete name : D:\11. The Pig Who Cried Werewolf (2011) AVC [UKR_ENG] [Hurtom].
Format :
Format version : Version 4 / Version 2
File size : 129 MiB
Duration : 6 min 48 s
Overall bit rate : 2 649 kb/s
Movie name : Порося, що кричало: Вовк! Вовкулака! / The Pig Who Cried Werewolf (2011)
Encoded date : UTC 2021-01-29 19:32:58
Writing application : v51.0.0 ('I Wish') 32-bit
Writing library : libebml v1.4.0 + v1.6.2
Cover : Yes
Attachments : cover.jpg

Video
ID : 1
Format : AVC
Format/Info : Advanced Video Codec
Format profile : [email protected]
Format settings, CABAC : Yes
Format settings, RefFrames : 9 frames
Codec ID : V_MPEG4/ISO/AVC
Duration : 6 min 48 s
Bit rate : 2 000 kb/s
Width : 1 024 pixels
Height : 570 pixels
Display aspect ratio : 16:9
Frame rate mode : Constant
Frame rate : 23.976 (24000/1001) FPS
Color space : YUV
Chroma subsampling : 4:2:0
Bit depth : 8 bits
Scan type : Progressive
Bits/(Pixel*Frame) : 0.143
Stream size : 97.6 MiB (76%)
Writing library : core 157 r2935 545de2f
Encoding settings : cabac=1 / ref=9 / deblock=1:-1:-1 / analyse=0x3:0x113 / me=umh / subme=11 / psy=1 / psy_rd=1.00:0.15 / mixed_ref=1 / me_range=48 / chroma_me=1 / trellis=2 / 8x8dct=1 / cqm=0 / deadzone=21,11 / fast_pskip=0 / chroma_qp_offset=-5 / threads=18 / lookahead_threads=3 / sliced_threads=0 / nr=0 / decimate=1 / interlaced=0 / bluray_compat=0 / constrained_intra=0 / bframes=8 / b_pyramid=2 / b_adapt=2 / b_bias=0 / direct=1 / weightb=1 / open_gop=0 / weightp=2 / keyint=240 / keyint_min=23 / scenecut=40 / intra_refresh=0 / rc_lookahead=60 / rc=2pass / mbtree=1 / bitrate=2000 / ratetol=1.0 / qcomp=0.60 / qpmin=10 / qpmax=69 / qpstep=4 / cplxblur=20.0 / qblur=0.5 / vbv_maxrate=50000 / vbv_bufsize=62500 / nal_hrd=none / filler=0 / ip_ratio=1.40 / aq=1:1.00
Language : English
Default : Yes
Forced : No

Audio #1
ID : 2
Format : AC-3
Format/Info : Audio Coding 3
Format settings, Endianness : Big
Codec ID : A_AC3
Duration : 6 min 48 s
Bit rate mode : Constant
Bit rate : 192 kb/s
Channel(s) : 2 channels
Channel positions : Front: L R
Sampling rate : 48.0 kHz
Frame rate : 31.250 FPS (1536 SPF)
Bit depth : 16 bits
Compression mode : Lossy
Stream size : 9.36 MiB (7%)
Title : ТЕТ
Language : Ukrainian
Service kind : Complete Main
Default : Yes
Forced : Yes

Audio #2
ID : 3
Format : AC-3
Format/Info : Audio Coding 3
Format settings, Endianness : Big
Codec ID : A_AC3
Duration : 6 min 48 s
Bit rate mode : Constant
Bit rate : 448 kb/s
Channel(s) : 6 channels
Channel positions : Front: L C R, Side: L R, LFE
Sampling rate : 48.0 kHz
Frame rate : 31.250 FPS (1536 SPF)
Bit depth : 16 bits
Compression mode : Lossy
Stream size : 21.8 MiB (17%)
Title : Original
Language : English
Service kind : Complete Main
Default : No
Forced : No

Text
ID : 4
Format : UTF-8
Codec ID : S_TEXT/UTF8
Codec ID/Info : UTF-8 Plain Text
Duration : 5 min 1 s
Bit rate : 71 b/s
Count of elements : 65
Stream size : 2.62 KiB (0%)
Title : Full
Language : English
Default : No
Forced : No
Скріншоти
Особиста оцінка: 0 - не дивився
12. Кіт у чоботях / Puss in Boots (2011) AVC Ukr/Eng | Sub 2хUkr/Eng
Кіт у чоботях / Puss in Boots (2011) AVC Ukr/Eng | Sub 2хUkr/Eng


Жанр: анімація, пригодницька комедія
Країна: США



Кінокомпанія: DreamWorks Animation
Режисер: Кріс Міллер / Chris Miller
Актори: Антоніо Бандерас / Antonio Banderas, Сальма Гаєк / Salma Hayek, Зак Ґаліфіанакіс / Zach Galifianakis, Біллі Боб Торнтон / Billy Bob Thornton, Емі Седаріс / Amy Sedaris, Констанс Мері / Constance Marie та інші

Сюжет:
Як і в кожного легендарного героя, у Кота було важке дитинство — ще немовлям він потрапив у дитячий притулок маленького іспанського (чи мексиканського?) містечка. Там Кіт зустрів яйце на ім'я Хитун Александр Бовтун, який ще у дитинстві склав хитрий план викрадення гуски, що несе золоті яйця. Допомогти у його здійсненні мали чарівні боби.
Друзі організували Бобовий клуб (головне правило якого — «нікому не розповідати про Бобовий клуб») і стали шукати способи наблизитися до своєї мрії. Згодом Кіт розпочав свій шлях народного героя та рятівника бабусь, а Бовтун, засліплений жадобою багатства, потрапив у в'язницю. Через сім років і вони знову возз'єдналися, аби згадати старі часи та вкрасти омріяну гуску. Допомагає їм у цьому красуня Кицька М'яколапка.


Тривалість: 01:30:15
Якість:
Відео:
кодек:
розмір кадру: 1150x490
бітрейт: 2 349 кб/с

Аудіо # 1:
мова: українська
озвучення: професійний дубляж | LeDoyen Studio,
кодек: 5.1
бітрейт: 448 кб/с
Інформація про озвучення
Перекладач і автор синхронного тексту: Федір Сидорук
Режисер дубляжу: Костянтин Лінартович
Ролі дублювали: Антоніо Бандерас/Кіт у чоботях — Андрій Самінін, Сальма Гаєк/Кицька М’яколапка — Олена Узлюк, Зак Ґаліфіанакіс/Хитун-Бовтун — Дмитро Вікулов, Біллі Боб Торнтон/Джек — Михайло Жонін, Емі Сідаріс/Джил — Катерина Кістень, Констанс Марі/Імельда — Тетяна Зіновенко, Команданте — Володимир Жогло; а також: Андрій Гайдай, Андрій Мкртчан, Анна Виговська, Валерій Легін, Майк Мітчел — Валерій Шептекіта, В’ячеслав Дудко, Денис Капустін, Катерина Качан, Костянтин Лінартович, Людмила Ардельян, Людмила Барбір, Микола Запісочний, Микола Карцев, Михайло Тишин, Олексій Череватенко, Павло Костіцин, Петро Сова, Поліна Капустіна, Сергій Солопай, Софія Масаутова, Тетяна Піроженко
Аудіо # 2:
мова: англійська
озвучення: оригінал
кодек: 5.1
бітрейт: 448 кб/с

Субтитри # 1:
мова: українська
тип: програмні (м'які)
формат: *.srt

Субтитри # 2:
мова: українська
тип: програмні (м'які)
формат: *.srt

Субтитри # 3:
мова: англійська
тип: програмні (м'які)
формат: *.srt
Info
General
Unique ID : 206734979795584254856931546512034612613 (0x9B87B574D6992F1C01136F4316B3C585)
Complete name : D:\12. Puss in Boots (2011) AVC [UKR_ENG] [Hurtom].
Format :
Format version : Version 4 / Version 2
File size : 2.05 GiB
Duration : 1 h 30 min
Overall bit rate : 3 248 kb/s
Movie name : Кіт у чоботях / Puss in Boots (2011)
Encoded date : UTC 2021-01-26 21:21:09
Writing application : v51.0.0 ('I Wish') 32-bit
Writing library : libebml v1.4.0 + v1.6.2
Cover : Yes
Attachments : cover.jpg

Video
ID : 1
Format : AVC
Format/Info : Advanced Video Codec
Format profile : [email protected]
Format settings, CABAC : Yes
Format settings, RefFrames : 10 frames
Codec ID : V_MPEG4/ISO/AVC
Duration : 1 h 30 min
Bit rate : 2 349 kb/s
Width : 1 150 pixels
Height : 490 pixels
Display aspect ratio : 2.35:1
Frame rate mode : Constant
Frame rate : 23.976 (24000/1001) FPS
Color space : YUV
Chroma subsampling : 4:2:0
Bit depth : 8 bits
Scan type : Progressive
Bits/(Pixel*Frame) : 0.174
Stream size : 1.48 GiB (72%)
Writing library : core 120 r2164 da19765
Encoding settings : cabac=1 / ref=10 / deblock=1:-2:-1 / analyse=0x3:0x113 / me=umh / subme=11 / psy=1 / psy_rd=0.95:0.05 / mixed_ref=1 / me_range=32 / chroma_me=1 / trellis=2 / 8x8dct=1 / cqm=0 / deadzone=21,11 / fast_pskip=0 / chroma_qp_offset=-3 / threads=6 / sliced_threads=0 / nr=0 / decimate=1 / interlaced=0 / bluray_compat=0 / constrained_intra=0 / bframes=8 / b_pyramid=2 / b_adapt=1 / b_bias=0 / direct=1 / weightb=1 / open_gop=0 / weightp=2 / keyint=240 / keyint_min=22 / scenecut=40 / intra_refresh=0 / rc=2pass / mbtree=0 / bitrate=2349 / ratetol=1.0 / qcomp=0.70 / qpmin=10 / qpmax=61 / qpstep=4 / cplxblur=20.0 / qblur=0.5 / ip_ratio=1.40 / pb_ratio=1.30 / aq=2:0.70
Language : English
Default : Yes
Forced : No

Audio #1
ID : 2
Format : AC-3
Format/Info : Audio Coding 3
Format settings, Endianness : Big
Codec ID : A_AC3
Duration : 1 h 30 min
Bit rate mode : Constant
Bit rate : 448 kb/s
Channel(s) : 6 channels
Channel positions : Front: L C R, Side: L R, LFE
Sampling rate : 48.0 kHz
Frame rate : 31.250 FPS (1536 SPF)
Bit depth : 16 bits
Compression mode : Lossy
Stream size : 289 MiB (14%)
Title : Le Doyen Studio
Language : Ukrainian
Service kind : Complete Main
Default : Yes
Forced : Yes

Audio #2
ID : 3
Format : AC-3
Format/Info : Audio Coding 3
Format settings, Endianness : Big
Codec ID : A_AC3
Duration : 1 h 30 min
Bit rate mode : Constant
Bit rate : 448 kb/s
Channel(s) : 6 channels
Channel positions : Front: L C R, Side: L R, LFE
Sampling rate : 48.0 kHz
Frame rate : 31.250 FPS (1536 SPF)
Bit depth : 16 bits
Compression mode : Lossy
Stream size : 289 MiB (14%)
Title : Original
Language : English
Service kind : Complete Main
Default : No
Forced : No

Text #1
ID : 4
Format : UTF-8
Codec ID : S_TEXT/UTF8
Codec ID/Info : UTF-8 Plain Text
Duration : 1 h 18 min
Bit rate : 0 b/s
Count of elements : 17
Stream size : 591 Bytes (0%)
Title : Forсed
Language : Ukrainian
Default : Yes
Forced : Yes

Text #2
ID : 5
Format : UTF-8
Codec ID : S_TEXT/UTF8
Codec ID/Info : UTF-8 Plain Text
Duration : 1 h 19 min
Bit rate : 71 b/s
Count of elements : 907
Stream size : 41.9 KiB (0%)
Title : Full (BD CEE)
Language : Ukrainian
Default : No
Forced : No

Text #3
ID : 6
Format : UTF-8
Codec ID : S_TEXT/UTF8
Codec ID/Info : UTF-8 Plain Text
Duration : 1 h 29 min
Bit rate : 64 b/s
Count of elements : 920
Stream size : 42.4 KiB (0%)
Title : Full (Netflix)
Language : Ukrainian
Default : No
Forced : No

Text #4
ID : 7
Format : UTF-8
Codec ID : S_TEXT/UTF8
Codec ID/Info : UTF-8 Plain Text
Duration : 1 h 19 min
Bit rate : 47 b/s
Count of elements : 886
Stream size : 27.6 KiB (0%)
Title : Full
Language : English
Default : No
Forced : No
Скріншоти
Особиста оцінка: 0 - не дивився
13. Кіт у чоботях: Троє чортенят / Puss in Boots: The Three Diablos (2012) AVC 3xUkr/Eng | Sub Ukr/Eng
Кіт у чоботях: Троє чортенят / Puss in Boots: The Three Diablos (2012) AVC 3xUkr/Eng | Sub Ukr/Eng


Жанр: анімація, пригодницька комедія
Країна: США



Кінокомпанія: DreamWorks Animation
Режисер: Раман Гуї / Raman Hui
Актори: Антоніо Бандерас / Antonio Banderas, Жілль Маріні / Gilles Marini, Шарлотта Ньюхаус / Charlotte Newhouse, Кріс Міллер / Chris Miller, Волт Дорн / Walt Dohrn та інші

Сюжет:
Кіт у чоботях вирушає на пошук рубіна, вкраденого з корони принцеси горезвісним французьким злодієм Шепотом. Його супроводжують троє маленьких кошенят, три чортенятка. Кіт повинен приручити їх, перш ніж поставити під загрозу місію.


Тривалість: 00:13:05
Якість:
Відео:
кодек:
розмір кадру: 1154x650
бітрейт: 3 390 кб/с

Аудіо # 1:
мова: українська
озвучення: професійний дубляж
кодек: 2.0
бітрейт: 192 кб/с

Аудіо # 2:
мова: українська
озвучення: любительське, багатоголосе закадрове | M&M
кодек: 5.1
бітрейт: 448 кб/с

Аудіо # 3:
мова: українська
озвучення: любительське, одноголосе закадрове UAMax (Ray)
кодек: 5.1
бітрейт: 448 кб/с

Аудіо # 4:
мова: англійська
озвучення:: оригінал
кодек: 5.1
бітрейт: 448 кб/с

Субтитри # 1:
мова: українська
тип: програмні (м'які)
формат: *.srt

Субтитри # 2:
мова: англійська
тип: програмні (м'які)
формат: *.srt
Info
General
Unique ID : 257102406846119738224499132635701360637 (0xC16C1F5662D70FA7A4836A651E88B7FD)
Complete name : D:\13. Puss in Boots. The Three Diablos (2012) AVC [3xUKR_ENG] [Hurtom].
Format :
Format version : Version 4 / Version 2
File size : 462 MiB
Duration : 13 min 5 s
Overall bit rate : 4 931 kb/s
Movie name : Кіт у чоботях: Троє чортенят / Puss in Boots: The Three Diablos (2012)
Encoded date : UTC 2021-01-26 21:02:55
Writing application : v51.0.0 ('I Wish') 32-bit
Writing library : libebml v1.4.0 + v1.6.2
Cover : Yes
Attachments : cover.jpg

Video
ID : 1
Format : AVC
Format/Info : Advanced Video Codec
Format profile : [email protected]
Format settings, CABAC : Yes
Format settings, RefFrames : 10 frames
Codec ID : V_MPEG4/ISO/AVC
Duration : 13 min 5 s
Bit rate : 3 390 kb/s
Width : 1 154 pixels
Height : 650 pixels
Display aspect ratio : 16:9
Frame rate mode : Constant
Frame rate : 23.976 (24000/1001) FPS
Color space : YUV
Chroma subsampling : 4:2:0
Bit depth : 8 bits
Scan type : Progressive
Bits/(Pixel*Frame) : 0.188
Stream size : 317 MiB (69%)
Title : Puss in Boots: The Three Diablos
Writing library : core 120 r2164 da19765
Encoding settings : cabac=1 / ref=10 / deblock=1:-1:-1 / analyse=0x3:0x113 / me=umh / subme=11 / psy=1 / psy_rd=0.80:0.00 / mixed_ref=1 / me_range=32 / chroma_me=1 / trellis=2 / 8x8dct=1 / cqm=0 / deadzone=21,11 / fast_pskip=0 / chroma_qp_offset=-2 / threads=6 / sliced_threads=0 / nr=0 / decimate=0 / interlaced=0 / bluray_compat=0 / constrained_intra=0 / bframes=8 / b_pyramid=2 / b_adapt=2 / b_bias=0 / direct=3 / weightb=1 / open_gop=0 / weightp=2 / keyint=250 / keyint_min=23 / scenecut=40 / intra_refresh=0 / rc_lookahead=60 / rc=2pass / mbtree=1 / bitrate=3390 / ratetol=1.0 / qcomp=0.70 / qpmin=0 / qpmax=69 / qpstep=4 / cplxblur=20.0 / qblur=0.5 / vbv_maxrate=50000 / vbv_bufsize=62500 / nal_hrd=none / ip_ratio=1.20 / aq=2:0.80
Language : English
Default : Yes
Forced : No
Color range : Limited
Matrix coefficients : BT.709

Audio #1
ID : 2
Format : AC-3
Format/Info : Audio Coding 3
Format settings, Endianness : Big
Codec ID : A_AC3
Duration : 13 min 5 s
Bit rate mode : Constant
Bit rate : 192 kb/s
Channel(s) : 2 channels
Channel positions : Front: L R
Sampling rate : 48.0 kHz
Frame rate : 31.250 FPS (1536 SPF)
Bit depth : 16 bits
Compression mode : Lossy
Stream size : 18.0 MiB (4%)
Title : TET
Language : Ukrainian
Service kind : Complete Main
Default : Yes
Forced : Yes

Audio #2
ID : 3
Format : AC-3
Format/Info : Audio Coding 3
Format settings, Endianness : Big
Codec ID : A_AC3
Duration : 13 min 4 s
Bit rate mode : Constant
Bit rate : 448 kb/s
Channel(s) : 6 channels
Channel positions : Front: L C R, Side: L R, LFE
Sampling rate : 48.0 kHz
Frame rate : 31.250 FPS (1536 SPF)
Bit depth : 16 bits
Compression mode : Lossy
Stream size : 41.9 MiB (9%)
Title : M&M
Language : Ukrainian
Service kind : Complete Main
Default : No
Forced : No

Audio #3
ID : 4
Format : AC-3
Format/Info : Audio Coding 3
Format settings, Endianness : Big
Codec ID : A_AC3
Duration : 13 min 4 s
Bit rate mode : Constant
Bit rate : 448 kb/s
Channel(s) : 6 channels
Channel positions : Front: L C R, Side: L R, LFE
Sampling rate : 48.0 kHz
Frame rate : 31.250 FPS (1536 SPF)
Bit depth : 16 bits
Compression mode : Lossy
Stream size : 41.9 MiB (9%)
Title : UAMax (Ray)
Language : Ukrainian
Service kind : Complete Main
Default : No
Forced : No

Audio #4
ID : 5
Format : AC-3
Format/Info : Audio Coding 3
Format settings, Endianness : Big
Codec ID : A_AC3
Duration : 13 min 5 s
Bit rate mode : Constant
Bit rate : 448 kb/s
Channel(s) : 6 channels
Channel positions : Front: L C R, Side: L R, LFE
Sampling rate : 48.0 kHz
Frame rate : 31.250 FPS (1536 SPF)
Bit depth : 16 bits
Compression mode : Lossy
Stream size : 42.0 MiB (9%)
Title : Original
Language : English
Service kind : Complete Main
Default : No
Forced : No

Text #1
ID : 6
Format : UTF-8
Codec ID : S_TEXT/UTF8
Codec ID/Info : UTF-8 Plain Text
Duration : 11 min 26 s
Bit rate : 71 b/s
Count of elements : 130
Stream size : 5.96 KiB (0%)
Title : Full
Language : Ukrainian
Default : No
Forced : No

Text #2
ID : 7
Format : UTF-8
Codec ID : S_TEXT/UTF8
Codec ID/Info : UTF-8 Plain Text
Duration : 11 min 26 s
Bit rate : 46 b/s
Count of elements : 128
Stream size : 3.91 KiB (0%)
Title : Full
Language : English
Default : No
Forced : No

Menu
00:00:00.000 : en:Chapter 1
00:05:06.723 : en:Chapter 2
00:13:05.242 : en:Chapter 3
Скріншоти
Особиста оцінка: 0 - не дивився

Над релізом працювали:
taraskill1, Sando7, abodnya , Arsenfpu, robotron005 - зведення.
РОМЕО, xslim, servus12, Undead, nick_89, Sando7 - запис.
thefir, mishka1998 - постери.
Maters - AVC-ріпи до короткометрівок.
leicheman - субтитри.

Джерело: & &


Золотий реліз (завантажене не впливає на рейтинг)
 Трекер:    Зареєстрований   

Завантажити / скачати мультфільм українською



відео для новачків



 Зареєстрований:   2021-04-11 23:42
 Розмір:   14.83 GB 
 Оцінка мультфільму:   9.2/10 (Голосів: 24)
   
Zerg_SERG 
Новенький


З нами з: 07.11.09
Востаннє: 16.04.21
Повідомлень: 19

2021-01-30 11:04  
Дуже кріпко дякую!
CoreKira 
Новенький


З нами з: 28.12.18
Востаннє: 16.04.21
Повідомлень: 4

2021-02-05 14:30  
Навіть не підозрював, що їх так багато існує. Дякую!
Punkoivan 
Новенький


З нами з: 30.05.12
Востаннє: 15.04.21
Повідомлень: 20

2021-02-26 01:55  
Тепер я знаю, чим займусь на вихідні! Happy
Anonymous 







2021-04-11 23:49  
Торрент оновлено. Додано дубляж до "Шрек 2 / Shrek 2 (2004)".

Tinlm jkjho 
Новенький


З нами з: 07.02.21
Востаннє: 16.04.21
Повідомлень: 15

2021-04-12 00:53  
Anonymous
Дубляж від світ тв? ..

andros507 
VIP


З нами з: 15.09.10
Востаннє: 16.04.21
Повідомлень: 327

2021-04-15 22:57  
Переглянув новий дубляж до другої частини від світ тв. Мені чи здалося, чи справді, змішування оригінальної доріжки (з піснями) із дубляжем було неправильним і крізь дубляж "проривалися" репліки англійською мовою персонажів.
Ваш часовий пояс: GMT + 2 Години

Нова тема   Відповісти