Зоряні Війни: Війни клонів (Сезон 2) / Star Wars: The Clone Wars (Season 2) (2009) 1080p Ukr/Eng | Sub Eng

Нові коментарі

Нова тема   Відповісти
Автор Повідомлення
Argentum 
VIP


З нами з: 25.09.11
Востаннє: 20.04.21
Повідомлень: 309

2021-01-29 20:24  
Зоряні Війни: Війни клонів (Сезон 2) / Star Wars: The Clone Wars (Season 2) (2009) 1080p Ukr/Eng | Sub Eng

Зоряні Війни: Війни клонів (Сезон 2) / Star Wars: The Clone Wars (Season 2) (2009) 1080p Ukr/Eng | Sub Eng


Жанр: анімація, екшн, пригодницький, фантастика
Країна: США



Кінокомпанія: Lucasfilm
Режисер: Дейв Філоні
Актори: Метт Лантер, Ешлі Екштейн, Джеймс Арнольд Тейлор, Ді Бредлі Бейкер, Том Кейн, Ніка Футтерман, Єн Еберкромбі, Корі Бертон, Катрін Табер, Мэттью Вуд, Сэмюэл Лерой Джексон, Крістофер Лі та інші.

Сюжет:
Дія у мультсеріалі розгортаються на часовому проміжку між другим та третім епізодами фільму "Зоряні Війни". Кожна серія описує невеликий період Війн Клонів. На передових позиціях міжгалактичної війни Добра і Зла знову Енакін Скайуокер, Обі-Ван Кенобі, Падме Амідала, а також падаван Енакіна - Асока, з іншого боку їм протистоять Палпалатін, граф Дуку й генерал Грівус.


Тривалість: 1 серія: 22:00 (цілком серій: 22)
Перелік серій
2x01. Holocron Heist
2x02. Cargo of Doom
2x03. Children of the Force
2x04. Senate Spy
2x05. Landing at Point Rain
2x06. Weapons Factory
2x07. Legacy of Terror
2x08. Brain Invaders
2x09. Grievous Intrigue
2x10. The Deserter
2x11. Lightsaber Lost
2x12. The Mandalore Plot
2x13. Voyage of Temptation
2x14. Duchess of Mandalore
2x15. Senate Murders
2x16. Cat and Mouse
2x17. Bounty Hunters
2x18. The Zillo Beast
2x19. The Zillo Beast Strikes Back
2x20. Death Trap
2x21. R2 Come Home
2x22. Lethal Trackdown
Якість:
Відео:
кодек:
розмір кадру: 1920 х 816
бітрейт: 8571 - 8860 кб/с

Аудіо # 1:
мова: українська
переклад: двоголосий закадровий*
кодек: 2.0
бітрейт: 192 кб/с
* - Епізоди 12, 13, 14 озвучення багатоголосе закадрове від телеканалу QTV

Аудіо # 2:
мова: англійська
переклад: оригінал
кодек: 5.1
бітрейт: 640 кб/с

Субтитри:
мова: англійська
тип: програмні (м'які)
формат: *.srt
Info
General
Unique ID : 52949836290465077196608576742352970167 (0x27D5C47C99316FEA48F67C4E023361B7)
Complete name : Star.Wars.The.Clone.Wars.S02E03..1080p.Ukr.Eng.Hurtom.
Format :
Format version : Version 4
File size : 1.49 GiB
Duration : 22 min 40 s
Overall bit rate : 9 383 kb/s
Movie name : 2x03. Children of the Force
Encoded date : UTC 2021-01-29 12:56:04
Writing application : v52.0.0 ('Secret For The Mad') 64-bit
Writing library : libebml v1.4.1 + v1.6.2

Video
ID : 1
Format : AVC
Format/Info : Advanced Video Codec
Format profile : [email protected]
Format settings : CABAC / 5 Ref Frames
Format settings, CABAC : Yes
Format settings, Reference : 5 frames
Codec ID : V_MPEG4/ISO/AVC
Duration : 22 min 39 s
Bit rate : 8 560 kb/s
Width : 1 920 pixels
Height : 816 pixels
Display aspect ratio : 2.35:1
Frame rate mode : Constant
Frame rate : 23.976 FPS
Color space : YUV
Chroma subsampling : 4:2:0
Bit depth : 8 bits
Scan type : Progressive
Bits/(Pixel*Frame) : 0.228
Stream size : 1.35 GiB (91%)
Title : AVC 1920*816 @ 8 560 kb/s
Writing library : core 110 r1820 fdcf2ae
Encoding settings : cabac=1 / ref=5 / deblock=1:0:0 / analyse=0x3:0x133 / me=umh / subme=8 / psy=1 / psy_rd=1.00:0.00 / mixed_ref=1 / me_range=16 / chroma_me=1 / trellis=1 / 8x8dct=1 / cqm=0 / deadzone=21,11 / fast_pskip=0 / chroma_qp_offset=-2 / threads=18 / sliced_threads=0 / nr=0 / decimate=1 / interlaced=0 / constrained_intra=0 / bframes=3 / b_pyramid=2 / b_adapt=1 / b_bias=0 / direct=1 / weightb=1 / open_gop=0 / weightp=2 / keyint=250 / keyint_min=23 / scenecut=40 / intra_refresh=0 / rc_lookahead=40 / rc=2pass / mbtree=1 / bitrate=8560 / ratetol=1.0 / qcomp=0.60 / qpmin=0 / qpmax=51 / qpstep=4 / cplxblur=20.0 / qblur=0.5 / ip_ratio=1.40 / aq=1:1.00
Language : English
Default : Yes
Forced : Yes

Audio #1
ID : 2
Format : AC-3
Format/Info : Audio Coding 3
Commercial name : Dolby Digital
Codec ID : A_AC3
Duration : 22 min 39 s
Bit rate mode : Constant
Bit rate : 192 kb/s
Channel(s) : 2 channels
Channel layout : L R
Sampling rate : 48.0 kHz
Frame rate : 31.250 FPS (1536 SPF)
Compression mode : Lossy
Stream size : 31.1 MiB (2%)
Title : AC-3 2.0 @ 192 kb/s # Novy
Language : Ukrainian
Service kind : Complete Main
Default : Yes
Forced : Yes

Audio #2
ID : 3
Format : AC-3
Format/Info : Audio Coding 3
Commercial name : Dolby Digital
Codec ID : A_AC3
Duration : 22 min 40 s
Bit rate mode : Constant
Bit rate : 640 kb/s
Channel(s) : 6 channels
Channel layout : L R C LFE Ls Rs
Sampling rate : 48.0 kHz
Frame rate : 31.250 FPS (1536 SPF)
Compression mode : Lossy
Stream size : 104 MiB (7%)
Title : AC-3 5.1 @ 640 kb/s
Language : English
Service kind : Complete Main
Default : No
Forced : No

Text
ID : 4
Format : UTF-8
Codec ID : S_TEXT/UTF8
Codec ID/Info : UTF-8 Plain Text
Duration : 22 min 18 s
Bit rate : 64 b/s
Count of elements : 230
Stream size : 10.5 KiB (0%)
Title : Full
Language : English
Default : No
Forced : No
Скріншоти









За доріжку 1 подяка панам karvai0 та ua4523 - епізоди 12, 13, 14.
За інформаційне наповнення та титульний реліз подяка пану radagastr.

Джерело:
Особиста оцінка: 8 - мені сподобалося



Срібний реліз (на рейтинг впливає 50% завантаженого)
 Трекер:    Зареєстрований   

Завантажити / скачати мультфільм українською



відео для новачків



 Зареєстрований:   2021-01-29 21:15
 Розмір:   32.68 GB 
 Оцінка мультсеріалу:   10/10 (Голосів: 3)
   
Ваш часовий пояс: GMT + 2 Години

Нова тема   Відповісти