Шанс (Сезон 1) / Chance (Season 1) (2016) 1080p Ukr/Eng

Нові коментарі

Нова тема   Відповісти
Автор Повідомлення
wuzicka 
Свій


З нами з: 08.03.10
Востаннє: 07.03.21
Повідомлень: 104

2021-01-29 01:39  
Шанс (Сезон 1) / Chance (Season 1) (2016) 1080p Ukr/Eng

Шанс (Сезон 1) / Chance (Season 1) (2016) 1080p Ukr/Eng


Жанр: драма, трилер
Країна: США



Кінокомпанія: Fox 21, Groundswell Productions
Режисер: Леонард Абрахамсон / Lenny Abrahamson
Актори: Г’ю Лорі / Hugh Laurie, Ітан Саплі / Ethan Suplee, Сел Лопес / Sal Lopez, Кевін Карскаллен / Kevin Carscallen, Джо Метені / Joe Metheny, Томас В. Стюарт / Thomas W. Stewart, Вільям Барбо / William W. Barbour, Керол Джефферсон / Carol Jefferson, Брюс Блау / Bruce Blau, Дена Боден / Dana Boden та інші

Сюжет:
Судовий психоневролог помиляється в діагнозі, що призводить до смерті пацієнтки. Чоловік загиблої вирішує помститися героєві… Тож, мимоволі, його було втягнено до небезпечного світу корупції, криміналу та неспокійних ночей.
Серіал знято за романом Кема Нанна — американського романіста.


Тривалість: 1 серія: ~50:00 (цілком серій: 10)
Перелік серій
01. Літо любові / The Summer of Love
02. Аксіома вибору / The Axiom of Choice
03. Знайти виконавця / Hiring It Done
04. Скажений лікар / The Mad Doctor
05. Точка опори у мінливому світі / A Still Point in the Turning World
06. The Unflinching Spark
07. Звільніть свої приховані сили / Unlocking Your Hidden Powers
08. Йогананда / The House of Space and Time
09. Камера-Обскура / Camera Obscura
10. Fluid Management
Якість:
Відео:
кодек:
розмір кадру: 1920х1080
бітрейт: ~5291 кб/с

Аудіо 1:
мова: українська
переклад: багатоголосий закадровий | Студія "Омікрон" на замовлення UA Team
кодек: 2.0
бітрейт: 224 Кбіт/с

Аудіо 2:
мова: англійська
переклад: оригінал
кодек: 2.0
бітрейт: 64 Кбіт/с
Info
General
Unique ID : 72441091305624758861570290378884196261 (0x367FA58DCD047ED0654084F6BD4B27A5)
Complete name : Chance.S01E01..1080p.Ukr.Eng.uateam.tv.
Format :
Format version : Version 4
File size : 1.96 GiB
Duration : 50 min 20 s
Overall bit rate : 5 561 kb/s
Movie name : Chance.S01E01..720p.Ukr.Eng.uateam.tv
Encoded date : UTC 2021-01-28 22:34:02
Writing application : v52.0.0 ('Secret For The Mad') 64-bit
Writing library : libebml v1.4.1 + v1.6.2 / Lavf55.19.104

Video
ID : 1
Format : AVC
Format/Info : Advanced Video Codec
Format profile : [email protected]
Format settings : CABAC / 4 Ref Frames
Format settings, CABAC : Yes
Format settings, ReFrames : 4 frames
Codec ID : V_MPEG4/ISO/AVC
Duration : 50 min 20 s
Bit rate : 5 271 kb/s
Width : 1 920 pixels
Height : 1 080 pixels
Display aspect ratio : 16:9
Frame rate mode : Constant
Frame rate : 23.976 (24000/1001) FPS
Color space : YUV
Chroma subsampling : 4:2:0
Bit depth : 8 bits
Scan type : Progressive
Bits/(Pixel*Frame) : 0.106
Stream size : 1.85 GiB (95%)
Title : Video Track
Default : Yes
Forced : No

Audio #1
ID : 2
Format : AC-3
Format/Info : Audio Coding 3
Commercial name : Dolby Digital
Codec ID : A_AC3
Duration : 50 min 20 s
Bit rate mode : Constant
Bit rate : 224 kb/s
Channel(s) : 2 channels
Channel layout : L R
Sampling rate : 48.0 kHz
Frame rate : 31.250 FPS (1536 SPF)
Bit depth : 16 bits
Compression mode : Lossy
Delay relative to video : -104 ms
Stream size : 80.7 MiB (4%)
Title : MVO Omikron studio for UAteam.tv
Language : Ukrainian
Service kind : Complete Main
Default : Yes
Forced : No

Audio #2
ID : 3
Format : LC SBR
Format/Info : Advanced Audio Codec Low Complexity with Spectral Band Replication
Commercial name : HE-
Format settings : Implicit
Codec ID : A_AAC-2
Duration : 50 min 20 s
Bit rate : 64.0 kb/s
Channel(s) : 2 channels
Channel layout : L R
Sampling rate : 48.0 kHz
Frame rate : 23.438 FPS (2048 SPF)
Compression mode : Lossy
Delay relative to video : -104 ms
Stream size : 23.0 MiB (1%)
Language : English
Default : No
Forced : No
Скріншоти

Джерело:
Особиста оцінка: 8 - мені сподобалося



Авторський реліз (завантажувати можна без реєстрації)
 Трекер:    Зареєстрований   

Завантажити / скачати серіал українською



відео для новачків



 Зареєстрований:   2021-01-29 01:39
 Розмір:   16.2 GB 
 Оцінка серіалу:   9.3/10 (Голосів: 6)
   
wuzicka 
Свій


З нами з: 08.03.10
Востаннє: 07.03.21
Повідомлень: 104

2021-01-29 01:49  
Робив для себе, але якщо є бажаючі дивитися у 1080p, то прошу дуже.
igor911 
Модератор відео


З нами з: 18.01.08
Востаннє: 07.03.21
Повідомлень: 15635

2021-01-29 08:25  
Треба замінити скріншоти - для HD релізів вони мають бути зняті у форматі png.
wuzicka 
Свій


З нами з: 08.03.10
Востаннє: 07.03.21
Повідомлень: 104

2021-01-29 10:11  
igor911
замінив

wuzicka 
Свій


З нами з: 08.03.10
Востаннє: 07.03.21
Повідомлень: 104

2021-01-30 12:17  
Можу пропадати з роздачі, тому при потребі пишіть - повернуся.
Ваш часовий пояс: GMT + 2 Години

Нова тема   Відповісти