[Збір коштів] Бортпровідниця (Сезон 1, серія 01) / The Flight Attendant (Season 1, Episode 01) (2020) 720p Ukr/Eng | Sub Ukr/Eng

Нові коментарі

Нова тема   Відповісти
Автор Повідомлення
dragheart 
Свій


З нами з: 27.01.16
Востаннє: 05.03.21
Повідомлень: 132

2021-01-28 13:04  
[Збір коштів] Бортпровідниця (Сезон 1, серія 01) / The Flight Attendant (Season 1, Episode 01) (2020) 720p Ukr/Eng | Sub Ukr/Eng

[Збір коштів] Бортпровідниця (Сезон 1, серія 01) / The Flight Attendant (Season 1, Episode 01) (2020) 720p Ukr/Eng | Sub Ukr/Eng


На цей серіал проводиться збір коштів.

Зібрано 1000 із 6400 грн

Щоб допомогти, тицніть СЮДИ


Жанр: драма, детектив, трилер, комедія
Країна: США



Кінокомпанія: HBO
Режисер: Сюзана Фогель, Маркос Сіга, Себастьян Сільва
Актори: Кейлі Куоко, Мерл Дендрідж, Нолан Джерард Фанк, Мішель Гомес, Мікіл Хаусмен та інші

Сюжет:
Головна героїня, бортпровідниця на ім'я Кессі, прокидається з похмілля і бачить поруч із собою труп. Тепер вона повинна з'ясувати, що сталося, боячись при цьому звертатися до поліції.


Трейлер українською.



Тривалість: 1 серія: ~40 хв (цілком серій: 1 із 8)
Перелік серій
01. In Case of Emergency
02. Rabbits
03. Funeralia
04. Conspiracy Theories
05. Other People's Houses
06. After Dark
07. Hitchcock Double
08. Arrivals and Departures
Якість: 720p
Відео:
кодек:
розмір кадру: 1280 х 720
бітрейт: 3 309 кб/с

Аудіо # 1:
мова: українська, багатоголосий закадровий | DubLiCat
кодек: 5.1
бітрейт: 384 кб/с
переклад: Sharleen
ролі озвучують:(Olegolas, Оля Ілєнко, Тетяна Рябова, Євгеній Тітомир, ArtymKo)

Аудіо # 2:
мова: англійська
переклад: оригінал
кодек: 5.1
бітрейт: 384 кб/с

Субтитри # 1:
мова: українська
тип: програмні (м'які)
формат: *.srt

Субтитри # 2:
мова: англійська
тип: програмні (м'які)
формат: *.srt

Приєднуйтесь до нас на FaceBook та Telegram: DubLcat
Info
General
Unique ID : 107415166343353847870155640278564182429 (0x50CF6895B284CC363C80864A06C7999D)
Complete name : F:\The.Flight.Attendant.S01(DubLiCat).720p.Ukr.Eng\The.Flight.Attendant.S01.E01(DubLiCat).720p.Ukr.Eng.
Format :
Format version : Version 4 / Version 2
File size : 1.30 GiB
Duration : 44mn 52s
Overall bit rate mode : Variable
Overall bit rate : 4 160 Kbps
Encoded date : UTC 2021-02-21 11:30:48
Writing application : v23.0.0 ('The Bride Said No') 64-bit
Writing library : libebml v1.3.6 + v1.4.9
DURATION : 00:44:52.544000000
NUMBER_OF_FRAMES : 84142
NUMBER_OF_BYTES : 129242112
_STATISTICS_WRITING_APP : v23.0.0 ('The Bride Said No') 64-bit
_STATISTICS_WRITING_DATE_UTC : 2021-02-21 11:30:48
_STATISTICS_TAGS : BPS DURATION NUMBER_OF_FRAMES NUMBER_OF_BYTES

Video
ID : 1
Format : AVC
Format/Info : Advanced Video Codec
Format profile : [email protected]
Format settings, CABAC : Yes
Format settings, ReFrames : 4 frames
Codec ID : V_MPEG4/ISO/AVC
Duration : 44mn 52s
Bit rate mode : Variable
Bit rate : 3 309 Kbps
Maximum bit rate : 5 100 Kbps
Width : 1 280 pixels
Height : 720 pixels
Display aspect ratio : 16:9
Frame rate : 23.976 fps
Color space : YUV
Chroma subsampling : 4:2:0
Bit depth : 8 bits
Scan type : Progressive
Bits/(Pixel*Frame) : 0.150
Stream size : 1.04 GiB (80%)
Language : English
Default : Yes
Forced : No
Color primaries : BT.709-5, BT.1361, IEC 61966-2-4, SMPTE RP177
Transfer characteristics : BT.709-5, BT.1361
Matrix coefficients : BT.709-5, BT.1361, IEC 61966-2-4 709, SMPTE RP177

Audio #1
ID : 2
Format : AC-3
Format/Info : Audio Coding 3
Mode extension : CM (complete main)
Codec ID : A_AC3
Duration : 44mn 52s
Bit rate mode : Constant
Bit rate : 384 Kbps
Channel(s) : 6 channels
Channel positions : Front: L C R, Side: L R, LFE
Sampling rate : 48.0 KHz
Bit depth : 16 bits
Compression mode : Lossy
Stream size : 123 MiB (9%)
Language : Ukrainian
Default : Yes
Forced : No

Audio #2
ID : 3
Format : AC-3
Format/Info : Audio Coding 3
Mode extension : CM (complete main)
Codec ID : A_AC3
Duration : 44mn 52s
Bit rate mode : Constant
Bit rate : 384 Kbps
Channel(s) : 6 channels
Channel positions : Front: L C R, Side: L R, LFE
Sampling rate : 48.0 KHz
Bit depth : 16 bits
Compression mode : Lossy
Stream size : 123 MiB (9%)
Title : Eng
Language : English
Default : No
Forced : No
Скріншоти




Джерело:
Особиста оцінка: 10 - без зайвих вагань рекомендую всім!


Авторський реліз (завантажувати можна без реєстрації)
 Трекер:    Зареєстрований   

Завантажити / скачати серіал українською



відео для новачків



 Зареєстрований:   2021-02-21 14:56
 Розмір:   1.3 GB 
 Оцінка серіалу:   10/10 (Голосів: 3)
   
bot 
робот


З нами з: 30.09.07
Востаннє: 26.05.05
Повідомлень: 27320

2021-01-28 13:04  
Тему перенесено з Серіали в HD до форуму Анонси релізів


dragheart

don pedro 
Попереджень: 1
Попереджень: 1 


З нами з: 29.06.11
Востаннє: 06.03.21
Повідомлень: 18902

2021-01-28 14:48  
Кажуть дуже достойний серіал.
21jumpstreet 
VIP


З нами з: 03.07.12
Востаннє: 06.03.21
Повідомлень: 1715

2021-01-28 14:59  
Яка ж Кейлі няшечка!!!!
wuzicka 
Свій


З нами з: 08.03.10
Востаннє: 06.03.21
Повідомлень: 104

2021-01-28 17:13  
Дякую...
Добре, що не почав дивитися російською...
Буду чекати на перекладю

bot 
робот


З нами з: 30.09.07
Востаннє: 26.05.05
Повідомлень: 27320

2021-02-21 14:55  
Тему перенесено з Анонси релізів до форуму Серіали в HD


dragheart

Ваш часовий пояс: GMT + 2 Години

Нова тема   Відповісти