Зоряні Війни: Війни клонів (Сезон 1) / Star Wars: The Clone Wars (Season 1) (2008) 1080p Ukr/Eng | Sub Eng [Director's Cut]

Нові коментарі

Нова тема   Відповісти
Автор Повідомлення
Argentum 
VIP


З нами з: 25.09.11
Востаннє: 16.04.21
Повідомлень: 309

2021-01-27 23:57  
Зоряні Війни: Війни клонів (Сезон 1) / Star Wars: The Clone Wars (Season 1) (2008) 1080p Ukr/Eng | Sub Eng [Director's Cut]

Зоряні Війни: Війни клонів (Сезон 1) / Star Wars: The Clone Wars (Season 1) (2008) 1080p Ukr/Eng | Sub Eng [Director's Cut]


Жанр: анімація, екшн, пригодницький, фантастика
Країна: США



Кінокомпанія: Lucasfilm
Режисер: Дейв Філоні
Актори: Метт Лантер, Ешлі Екштейн, Джеймс Арнольд Тейлор, Ді Бредлі Бейкер, Том Кейн, Ніка Футтерман, Єн Еберкромбі, Корі Бертон, Катрін Табер, Мэттью Вуд, Сэмюэл Лерой Джексон, Крістофер Лі та інші.

Сюжет:
Дія у мультсеріалі розгортаються на часовому проміжку між другим та третім епізодами фільму "Зоряні Війни". Кожна серія описує невеликий період Війн Клонів. На передових позиціях міжгалактичної війни Добра і Зла знову Енакін Скайуокер, Обі-Ван Кенобі, Падме Амідала, а також падаван Енакіна - Асока, з іншого боку їм протистоять Палпалатін, граф Дуку й генерал Грівус.


Тривалість: 1 серія: ~ 22:00 (цілком серій: 22)
Перелік серій
1x01. Ambush
1x02. Rising Malevolence
1x03. Shadow of Malevolence
1x04. Destroy Malevolence
1x05. Rookies
1x06. Downfall of a Droid
1x07. Duel of the Droids
1x08. Bombad Jedi
1x09. Cloak of Darkness
1x10. Lair of Grievous
1x11. Dooku Captured
1x12. The Gungan General
1x13. Jedi Crash
1x14. Defenders of Peace
1x15. Trespass
1x16. The Hidden Enemy
1x17. Blue Shadow Virus
1x18. Mystery of a Thousand Moons
1x19. Storm Over Ryloth
1x20. Innocents of Ryloth
1x21. Liberty on Ryloth
1x22. Hostage Crisis
Відео:
кодек:
розмір кадру: 1920 х 816
бітрейт: 5 771 - 6 661 кб/с

Аудіо # 1:
мова: українська
переклад: двоголосий закадровий
кодек: 2.0
бітрейт: 192 кб/с

Аудіо # 2:
мова: англійська
переклад: оригінал
кодек: 5.1
бітрейт: 640 кб/с

Субтитри:
мова: англійська
тип: програмні (м'які)
формат: *.srt
Info
General
Unique ID : 129813420816055280444257404439572568323 (0x61A927CA7A048F827AEBCF4F3FC4D903)
Complete name : Star.Wars.The.Clone.Wars.S01E03..1080p.Ukr.Eng.Hurtom.
Format :
Format version : Version 4
File size : 1.12 GiB
Duration : 23 min 21 s
Overall bit rate : 6 892 kb/s
Movie name : 1x03. Shadow of Malevolence
Encoded date : UTC 2021-01-27 12:50:28
Writing application : v52.0.0 ('Secret For The Mad') 64-bit
Writing library : libebml v1.4.1 + v1.6.2

Video
ID : 1
Format : AVC
Format/Info : Advanced Video Codec
Format profile : [email protected]
Format settings : CABAC / 5 Ref Frames
Format settings, CABAC : Yes
Format settings, Reference : 5 frames
Codec ID : V_MPEG4/ISO/AVC
Duration : 23 min 20 s
Bit rate : 6 062 kb/s
Width : 1 920 pixels
Height : 816 pixels
Display aspect ratio : 2.35:1
Frame rate mode : Constant
Frame rate : 23.976 FPS
Color space : YUV
Chroma subsampling : 4:2:0
Bit depth : 8 bits
Scan type : Progressive
Bits/(Pixel*Frame) : 0.161
Stream size : 1 012 MiB (88%)
Title : AVC 1920*816 @ 6 062 kb/s
Writing library : core 77 r1294 813fe72
Encoding settings : cabac=1 / ref=5 / deblock=1:-1:-1 / analyse=0x3:0x113 / me=umh / subme=7 / psy=1 / psy_rd=1.0:0.0 / mixed_ref=1 / me_range=16 / chroma_me=1 / trellis=2 / 8x8dct=1 / cqm=0 / deadzone=21,11 / chroma_qp_offset=-2 / threads=6 / nr=0 / decimate=1 / mbaff=0 / constrained_intra=0 / bframes=3 / b_pyramid=0 / b_adapt=2 / b_bias=0 / direct=3 / wpredb=1 / keyint=250 / keyint_min=25 / scenecut=40 / rc_lookahead=40 / rc=2pass / mbtree=1 / bitrate=6062 / ratetol=1.0 / qcomp=0.60 / qpmin=10 / qpmax=51 / qpstep=4 / cplxblur=20.0 / qblur=0.5 / vbv_maxrate=50000 / vbv_bufsize=50000 / ip_ratio=1.40 / aq=1:1.00
Language : English
Default : Yes
Forced : Yes

Audio #1
ID : 2
Format : AC-3
Format/Info : Audio Coding 3
Commercial name : Dolby Digital
Codec ID : A_AC3
Duration : 23 min 21 s
Bit rate mode : Constant
Bit rate : 192 kb/s
Channel(s) : 2 channels
Channel layout : L R
Sampling rate : 48.0 kHz
Frame rate : 31.250 FPS (1536 SPF)
Compression mode : Lossy
Stream size : 32.1 MiB (3%)
Title : AC-3 2.0 @ 192 kb/s # Novy
Language : Ukrainian
Service kind : Complete Main
Default : Yes
Forced : Yes

Audio #2
ID : 3
Format : AC-3
Format/Info : Audio Coding 3
Commercial name : Dolby Digital
Codec ID : A_AC3
Duration : 23 min 21 s
Bit rate mode : Constant
Bit rate : 640 kb/s
Channel(s) : 6 channels
Channel layout : L R C LFE Ls Rs
Sampling rate : 48.0 kHz
Frame rate : 31.250 FPS (1536 SPF)
Compression mode : Lossy
Stream size : 107 MiB (9%)
Title : AC-3 5.1 @ 640 kb/s
Language : English
Service kind : Complete Main
Default : No
Forced : No

Text
ID : 4
Format : UTF-8
Codec ID : S_TEXT/UTF8
Codec ID/Info : UTF-8 Plain Text
Duration : 21 min 52 s
Bit rate : 86 b/s
Count of elements : 307
Stream size : 13.8 KiB (0%)
Title : Full
Language : English
Default : No
Forced : No
Скріншоти









За доріжку 1 подяка панам karvai0, gig_Panas та ua2004.
За інформаційне наповнення та титульний реліз подяка пану radagastr.

Джерело:
Особиста оцінка: 8 - мені сподобалося



Бронзовий реліз (на рейтинг впливає 75% завантаженого)
 Трекер:    Зареєстрований   

Завантажити / скачати мультфільм українською



відео для новачків



 Зареєстрований:   2021-01-28 20:51
 Розмір:   24.73 GB 
 Оцінка мультсеріалу:   10/10 (Голосів: 3)
   
bot 
робот


З нами з: 30.09.07
Востаннє: 26.05.05
Повідомлень: 27902

2021-01-27 23:57  
Тему перенесено з Мультсеріали в HD до форуму Анонси релізів


Argentum

bot 
робот


З нами з: 30.09.07
Востаннє: 26.05.05
Повідомлень: 27902

2021-01-28 20:51  
Тему перенесено з Анонси релізів до форуму Мультсеріали в HD


Argentum

Ваш часовий пояс: GMT + 2 Години

Нова тема   Відповісти