Зоряні війни: Війни клонів / Star Wars: The Clone Wars (2008) 1080p 2xUkr/Eng | sub Eng

Нові коментарі

Нова тема   Відповісти
Автор Повідомлення
Argentum 
VIP


З нами з: 25.09.11
Востаннє: 07.03.21
Повідомлень: 285

2021-01-27 19:34  
Зоряні війни: Війни клонів / Star Wars: The Clone Wars (2008) 1080p 2xUkr/Eng | sub Eng

Зоряні війни: Війни клонів / Star Wars: The Clone Wars (2008) 1080p 2xUkr/Eng | sub Eng


Жанр: анімація, екшн, пригодницький, фантастика


Кінокомпанія: Lucasfilm
Режисер: Дейв Філон
Актори: Метт Лантер, Ешлі Екштейн, Джеймс Арнольд Тейлор, Ді Бредлі Бейкер, Том Кейн, Ніка Футтерман, Єн Еберкромбі, Корі Бертон, Катрін Табер, Мэттью Вуд, Сэмюэл Лерой Джексон, Крістофер Лі та інші.

Сюжет:
Цей повнометражний анімаційний фільм став відправною для подій, які продовжують свій розвиток в однойменному мультсеріалі.
Сюжет розгортається в час між другим (Атака Клонів) та третім (Помста Ситхів) епізодами саги Зоряні Війни – в розпал Війни Клонів.
У авангарді міжгалактичної війни Добра і Зла знову наші улюблені персонажі – Енакін Скайпуокер, Обі-Ван Кенобі та Падме Амідала, а також падаван Енакіна – Асока.

Галактика розколена, армія дроїдів після поразки на Геонозисі захопила основні шляхи гіперпростору, відокремивши Республіку від більшої частини її військ клонів. І дедалі більше систем приєднуються до сепаратистів графа Дуку. А тим часом, поки джедаї ведуть війну, немає нікого, хто б міг підтримувати порядок у галактиці — поширюються хаос і злочинність. Сина кримінального авторитета Джабби Гатта було викрадено невідомими піратами. Зневірений Джабба звертається за допомогою до джедаїв.


Тривалість: 01:38:26
Якість:
Відео:
кодек:
розмір кадру: 1920 х 816
бітрейт: 5 717 кб/с

Аудіо # 1:
мова: українська
переклад: професійний дубльований
кодек: 2.0
бітрейт: 192 кб/с

Аудіо # 2:
мова: українська
переклад: двоголосий закадровий
кодек: 2.0
бітрейт: 192 кб/с

Аудіо # 3:
мова: англійська
переклад: оригінал
кодек: 5.1
бітрейт: 640 кб/с

Субтитри:
мова: англійська
тип: програмні (м'які)
формат: *.srt
Info
General
Unique ID : 276170592545378890580676394703504317435 (0xCFC4857A17A3210FB036D27707249BFB)
Complete name : D:\Video\Star Wars\My\Star.Wars.The.Clone.Wars.2008..1080p.Ukr.Eng.Hurtom.
Format :
Format version : Version 4
File size : 4.64 GiB
Duration : 1 h 38 min
Overall bit rate : 6 735 kb/s
Movie name : Star Wars: The Clone Wars (2008)
Encoded date : UTC 2021-01-27 17:52:40
Writing application : v52.0.0 ('Secret For The Mad') 64-bit
Writing library : libebml v1.4.1 + v1.6.2
Cover : Yes
Attachments : cover.jpg

Video
ID : 1
Format : AVC
Format/Info : Advanced Video Codec
Format profile : [email protected]
Format settings : CABAC / 5 Ref Frames
Format settings, CABAC : Yes
Format settings, Reference : 5 frames
Codec ID : V_MPEG4/ISO/AVC
Duration : 1 h 38 min
Bit rate : 5 717 kb/s
Width : 1 920 pixels
Height : 816 pixels
Display aspect ratio : 2.35:1
Frame rate mode : Constant
Frame rate : 23.976 FPS
Color space : YUV
Chroma subsampling : 4:2:0
Bit depth : 8 bits
Scan type : Progressive
Bits/(Pixel*Frame) : 0.152
Stream size : 3.93 GiB (85%)
Title : AVC 1920*816 @ 5 717 kb/s
Writing library : core 64 r995 2324c70
Encoding settings : cabac=1 / ref=5 / deblock=1:0:0 / analyse=0x3:0x133 / me=umh / subme=7 / psy_rd=1.0:0.0 / brdo=1 / mixed_ref=1 / me_range=16 / chroma_me=1 / trellis=1 / 8x8dct=1 / cqm=0 / deadzone=21,11 / chroma_qp_offset=-2 / threads=6 / nr=0 / decimate=1 / mbaff=0 / bframes=3 / b_pyramid=1 / b_adapt=1 / b_bias=0 / direct=1 / wpredb=1 / bime=1 / keyint=250 / keyint_min=25 / scenecut=40(pre) / rc=2pass / bitrate=5717 / ratetol=1.0 / qcomp=0.60 / qpmin=10 / qpmax=51 / qpstep=4 / cplxblur=20.0 / qblur=0.5 / ip_ratio=1.40 / pb_ratio=1.30 / aq=1:1.00
Language : English
Default : Yes
Forced : Yes

Audio #1
ID : 2
Format : AC-3
Format/Info : Audio Coding 3
Commercial name : Dolby Digital
Codec ID : A_AC3
Duration : 1 h 38 min
Bit rate mode : Constant
Bit rate : 192 kb/s
Channel(s) : 2 channels
Channel layout : L R
Sampling rate : 48.0 kHz
Frame rate : 31.250 FPS (1536 SPF)
Compression mode : Lossy
Stream size : 135 MiB (3%)
Title : AC-3 2.0 @ 192 kb/s # NLOTV
Language : Ukrainian
Service kind : Complete Main
Default : Yes
Forced : Yes

Audio #2
ID : 3
Format : AC-3
Format/Info : Audio Coding 3
Commercial name : Dolby Digital
Codec ID : A_AC3
Duration : 1 h 38 min
Bit rate mode : Constant
Bit rate : 192 kb/s
Channel(s) : 2 channels
Channel layout : L R
Sampling rate : 48.0 kHz
Frame rate : 31.250 FPS (1536 SPF)
Compression mode : Lossy
Stream size : 135 MiB (3%)
Title : AC-3 2.0 @ 192 kb/s # Novy
Language : Ukrainian
Service kind : Complete Main
Default : No
Forced : Yes

Audio #3
ID : 4
Format : AC-3
Format/Info : Audio Coding 3
Commercial name : Dolby Digital
Codec ID : A_AC3
Duration : 1 h 38 min
Bit rate mode : Constant
Bit rate : 640 kb/s
Channel(s) : 6 channels
Channel layout : L R C LFE Ls Rs
Sampling rate : 48.0 kHz
Frame rate : 31.250 FPS (1536 SPF)
Compression mode : Lossy
Stream size : 451 MiB (9%)
Title : AC-3 5.1 @ 640 kb/s
Language : English
Service kind : Complete Main
Default : No
Forced : No

Text
ID : 5
Format : UTF-8
Codec ID : S_TEXT/UTF8
Codec ID/Info : UTF-8 Plain Text
Duration : 1 h 33 min
Bit rate : 62 b/s
Count of elements : 1046
Stream size : 42.9 KiB (0%)
Title : Full
Language : English
Default : No
Forced : No
Скріншоти









За доріжку 1 подяка пану xslim
За доріжку 2 подяка пану yuraflash
За інформаційне наповнення та титульні релізи подяка панам Arsenfpu та radagastr

Джерело:
Особиста оцінка: 8 - мені сподобалося


 Трекер:    Зареєстрований   

Завантажити / скачати мультфільм українською



відео для новачків



 Зареєстрований:   2021-01-27 20:15
 Розмір:   4.64 GB 
 Оцінка мультфільму:   10/10 (Голосів: 3)
   
Altron320 
Свій


З нами з: 08.05.20
Востаннє: 07.03.21
Повідомлень: 134

2021-01-27 19:41  
Ще є дубляж від нло. https://toloka.to/t110384
Argentum 
VIP


З нами з: 25.09.11
Востаннє: 07.03.21
Повідомлень: 285

2021-01-27 19:46  
Altron320 написано:
Ще є дубляж від нло. https://toloka.to/t110384

Ооо дякую. Якось я прогавив. Зараз додам.

Ваш часовий пояс: GMT + 2 Години

Нова тема   Відповісти