Доля: Сага Вінкс (Сезон 1) / Fate: The Winx Saga (Season 1) (2021) 1080p Ukr/Eng

Нові коментарі

Нова тема   Відповісти
Автор Повідомлення
Цікава ідея 
VIP


З нами з: 25.12.11
Востаннє: 09.03.21
Повідомлень: 823

2021-01-26 21:32  
AVC | 1080p

Доля: Сага Вінкс (Сезон 1) / Fate: The Winx Saga (Season 1) (2021) 1080p Ukr/Eng


Доля: Сага Вінкс (Сезон 1) / Fate: The Winx Saga (Season 1) (2021) 1080p Ukr/Eng


Жанр: фентезі, бойовик, драма, пригоди
Країна: Італія, Велика Британія



Режисери: Ліза Джеймс-Ларссон, Ганна Куїнн, Стівен Вульфенден
Актори: Ебігейл Ф. Коуен, Денні Гріффін, Ганна ван дер Вестгойзен, Еліша Епплбаум та інші.

Сюжет:
Історія дорослішання п'яти юних фей, учениць школи чарівниць «Алфея» в іншому світі, де вони опановують свою магічну силу. Дівчат чекає любов і суперництво, а також смертельно небезпечні монстри.


Перекладено та озвучено ТО "Цікава Ідея"
Український трейлер в нашому озвученні:

Тривалість: 1 серія: ~ 50 хв. (цілком серій: 6)
Перелік серій:

01. To The Waters And The Wild
02. No Strangers Here
03. Heavy Mortal Hopes
04. Some Wrecked Angel
05. Wither Into the Truth
06. A Fanatic Heart
Якість: 1080p
Відео:
кодек:
розмір кадру: 1920 x 1080
бітрейт: ~ 4000 кб/с

Аудіо # 1:
мова: українська | "Цікава Ідея"
переклад: професійний багатоголосий закадровий
кодек: 5.1
бітрейт: 448 кб/с

Аудіо # 2:
мова: англійська
переклад: оригінал
кодек: E- 5.1
бітрейт: 768 кб/с
Info
Код:
Format                                   :
Format version                           : Version 4
File size                                : 2.04 GiB
Duration                                 : 53 min 42 s
Overall bit rate mode                    : Variable
Overall bit rate                         : 5 433 kb/s
Movie name                               : Доля: Сага Вінкс / Fate: The Winx Saga - S01E01 (2021) 1080p [Ukr.Eng] [Цікава Ідея]
Encoded date                             : UTC 2021-01-26 13:44:48
Writing application                      : v50.0.0 ('Awakenings') 64-bit
Writing library                          : libebml v1.4.0 + v1.6.2
Cover                                    : Yes
Attachments                              : cover.jpg

Video
ID                                       : 1
Format                                   : AVC
Format/Info                              : Advanced Video Codec
Format profile                           : [email protected]
Format settings                          : CABAC / 4 Ref Frames
Format settings, CABAC                   : Yes
Format settings, Reference frames        : 4 frames
Codec ID                                 : V_MPEG4/ISO/AVC
Duration                                 : 53 min 42 s
Bit rate mode                            : Variable
Bit rate                                 : 4 214 kb/s
Maximum bit rate                         : 20.0 Mb/s
Width                                    : 1 920 pixels
Height                                   : 1 080 pixels
Display aspect ratio                     : 16:9
Frame rate mode                          : Constant
Frame rate                               : 24.000 FPS
Color space                              : YUV
Chroma subsampling                       : 4:2:0
Bit depth                                : 8 bits
Scan type                                : Progressive
Bits/(Pixel*Frame)                       : 0.085
Stream size                              : 1.58 GiB (78%)
Writing library                          : core 148 r2722 1b0121b
Encoding settings                        : cabac=1 / ref=4 / deblock=1:0:0 / analyse=0x3:0x111 / me=umh / subme=10 / psy=1 / psy_rd=1.00:0.00 / mixed_ref=1 / me_range=120 / chroma_me=1 / trellis=2 / 8x8dct=1 / cqm=0 / deadzone=21,11 / fast_pskip=1 / chroma_qp_offset=-2 / threads=8 / lookahead_threads=2 / sliced_threads=0 / nr=0 / decimate=1 / interlaced=0 / bluray_compat=0 / stitchable=1 / constrained_intra=0 / bframes=16 / b_pyramid=2 / b_adapt=2 / b_bias=0 / direct=3 / weightb=1 / open_gop=0 / weightp=2 / keyint=240 / keyint_min=121 / scenecut=0 / intra_refresh=0 / rc_lookahead=240 / rc=crf / mbtree=1 / crf=16.0 / qcomp=0.50 / qpmin=6 / qpmax=51 / qpstep=4 / vbv_maxrate=20000 / vbv_bufsize=25000 / crf_max=0.0 / nal_hrd=vbr / filler=0 / ip_ratio=1.40 / aq=1:0.80
Default                                  : Yes
Forced                                   : No

Audio #1
ID                                       : 2
Format                                   : AC-3
Format/Info                              : Audio Coding 3
Commercial name                          : Dolby Digital
Codec ID                                 : A_AC3
Duration                                 : 53 min 42 s
Bit rate mode                            : Constant
Bit rate                                 : 448 kb/s
Channel(s)                               : 6 channels
Channel layout                           : L R C LFE Ls Rs
Sampling rate                            : 48.0 kHz
Frame rate                               : 31.250 FPS (1536 SPF)
Compression mode                         : Lossy
Stream size                              : 172 MiB (8%)
Title                                    : Цікава Ідея
Language                                 : Ukrainian
Service kind                             : Complete Main
Default                                  : Yes
Forced                                   : Yes

Audio #2
ID                                       : 3
Format                                   : E-AC-3 JOC
Format/Info                              : Enhanced AC-3 with Joint Object Coding
Commercial name                          : Dolby Digital Plus with Dolby Atmos
Codec ID                                 : A_EAC3
Duration                                 : 53 min 42 s
Bit rate mode                            : Constant
Bit rate                                 : 768 kb/s
Channel(s)                               : 6 channels
Channel layout                           : L R C LFE Ls Rs
Sampling rate                            : 48.0 kHz
Frame rate                               : 31.250 FPS (1536 SPF)
Compression mode                         : Lossy
Stream size                              : 295 MiB (14%)
Title                                    : Original
Language                                 : English
Service kind                             : Complete Main
Default                                  : No
Forced                                   : No
Complexity index                         : 16
Number of dynamic objects                : 15
Bed channel count                        : 1 channel
Bed channel configuration                : LFE
Скріншоти



Перекладено та озвучено творчим об'єднанням:

На озвучення серіалу проходить ЗБІР КОШТІВ






Авторський реліз (завантажувати можна без реєстрації)
 Трекер:    Зареєстрований   

Завантажити / скачати серіал українською



відео для новачків



 Зареєстрований:   2021-01-31 12:45
 Розмір:   12.38 GB 
 Оцінка серіалу:   8.4/10 (Голосів: 7)
   
leicheman 
Відео Гуртом - фільмокрай
Відео Гуртом - фільмокрай


З нами з: 03.07.14
Востаннє: 09.03.21
Повідомлень: 5959

2021-01-26 21:41  
Дуже слабенький серіал навіть по міркам "підліткових фентезі"
Усе дуже швидко, якось тут відбувається. Вони тільки заїхали туди, а за кілька днів вже стали найкращі подруги і розкидуються фразами "Я ж знаю Блум", закохання також відбуваються за кілька днів. Учнів у школі там близько сотні, а нам показують 2.5 вчителі і те з деректоркою. Про світ цей також нічого майже не відомо і про те, як він функціюнує.
Оцінка 5/10 - дивиться тільки, якщо ви в дитинстві дивилися мультсеріал бо будете як я недогонятися, що то таке там у них відбувається.

Ergo Proxy 
Поважний учасник


З нами з: 22.05.12
Востаннє: 09.03.21
Повідомлень: 186

2021-02-01 01:34  
Неочікувано, але досить прикольний серіал))
Чимало всього непередбачуваного)

Ваш часовий пояс: GMT + 2 Години

Нова тема   Відповісти