Хоробре серце. Змова в королівстві / Ritter Rost 2: Das Schrottkomplott (2017) AVC 2xUkr/Ger | Sub Ger

Нові коментарі

Нова тема   Відповісти
Автор Повідомлення
Anonymous 







2021-01-26 22:27  
Хоробре серце. Змова в королівстві / Ritter Rost 2: Das Schrottkomplott (2017) AVC 2xUkr/Ger | Sub Ger



Жанр: анімація, комедія, пригодницький, сімейний, фентезі
Країна: Німеччина



Кінокомпанія: Caligari Film- und Fernsehproduktions, Universum Film (UFA), Zweites Deutsches Fernsehen (ZDF)
Режисер: Томас Боденштайн, Маркус Гаманн
Актори: Том Ґерхардт, Йелла Хаазе, Бьянка Хайніке, Крістоф Марія Гербст, Дастін Земмельрогге та інші

Сюжет:
Події розгортаються у казковому королівстві Металомії. Розпочалася фінансова криза, що призвела до значних змін у житті кожного. Над усіма лицарями королівства, серед яких і головний герой – завзятий Расті – нависла загроза. Новий уряд планує розібрати їх на запчастини. Одного разу Расті вже рятував свою батьківщину. Настала черга для нового подвигу. Цього разу йому належить довести до розуму усі винаходи свого батька, аби потім, за допомогою винайдених ним технологій, врятувати усіх своїх друзів.


Тривалість: 01:27:13
Якість:
Відео:
кодек:
розмір кадру: 1 024 х 576
бітрейт: 1 558 кб/с

Аудіо # 1:
мова: українська
озвучення: професійний дубляж | студія AAA-Sound
кодек: 2.0 [stereo]
бітрейт: 192 кб/с

Аудіо # 2:
мова: українська
озвучення: професійне, багатоголосе закадрове
кодек: 2.0 [stereo]
бітрейт: 192 кб/с

Аудіо # 3:
мова: німецька
озвучення: оригінал
кодек: 5.1
бітрейт: 384 кб/с

Субтитри # 1:
мова: німецька
тип: програмні (м'які)
формат: *.srt
Info
General
Unique ID : 210750371970156601226966228611123553830 (0x9E8D0B93542492428843C06AC9BEA626)
Complete name : D:\Ritter Rost 2. Das Schrottkomplott (2017) AVC [2xUKR_GER] [Hurtom].
Format :
Format version : Version 4 / Version 2
File size : 1.42 GiB
Duration : 1 h 27 min
Overall bit rate : 2 328 kb/s
Movie name : Хоробре серце: Змова в королівстві / Ritter Rost 2: Das Schrottkomplott (2017)
Encoded date : UTC 2021-01-26 18:12:47
Writing application : v51.0.0 ('I Wish') 32-bit
Writing library : libebml v1.4.0 + v1.6.2
Cover : Yes
Attachments : cover.jpg

Video
ID : 1
Format : AVC
Format/Info : Advanced Video Codec
Format profile : [email protected]
Format settings, CABAC : Yes
Format settings, RefFrames : 12 frames
Codec ID : V_MPEG4/ISO/AVC
Duration : 1 h 27 min
Bit rate : 1 558 kb/s
Width : 1 024 pixels
Height : 576 pixels
Display aspect ratio : 16:9
Frame rate mode : Constant
Frame rate : 23.976 (24000/1001) FPS
Color space : YUV
Chroma subsampling : 4:2:0
Bit depth : 8 bits
Scan type : Progressive
Bits/(Pixel*Frame) : 0.110
Stream size : 972 MiB (67%)
Writing library : core 146 r2538 121396c
Encoding settings : cabac=1 / ref=12 / deblock=1:-1:-1 / analyse=0x3:0x133 / me=umh / subme=9 / psy=1 / psy_rd=0.40:0.00 / mixed_ref=1 / me_range=16 / chroma_me=1 / trellis=2 / 8x8dct=1 / cqm=0 / deadzone=21,11 / fast_pskip=1 / chroma_qp_offset=-2 / threads=24 / lookahead_threads=2 / sliced_threads=0 / nr=0 / decimate=1 / interlaced=0 / bluray_compat=0 / constrained_intra=0 / bframes=5 / b_pyramid=2 / b_adapt=2 / b_bias=0 / direct=3 / weightb=1 / open_gop=0 / weightp=2 / keyint=250 / keyint_min=23 / scenecut=40 / intra_refresh=0 / rc_lookahead=60 / rc=crf / mbtree=1 / crf=18.0 / qcomp=0.70 / qpmin=0 / qpmax=69 / qpstep=4 / ip_ratio=1.40 / aq=1:0.60
Language : German
Default : Yes
Forced : No

Audio #1
ID : 2
Format : AC-3
Format/Info : Audio Coding 3
Format settings, Endianness : Big
Codec ID : A_AC3
Duration : 1 h 27 min
Bit rate mode : Constant
Bit rate : 192 kb/s
Channel(s) : 2 channels
Channel positions : Front: L R
Sampling rate : 48.0 kHz
Frame rate : 31.250 FPS (1536 SPF)
Bit depth : 16 bits
Compression mode : Lossy
Stream size : 120 MiB (8%)
Title : AAA-Sound
Language : Ukrainian
Service kind : Complete Main
Default : Yes
Forced : Yes

Audio #2
ID : 3
Format : AC-3
Format/Info : Audio Coding 3
Format settings, Endianness : Big
Codec ID : A_AC3
Duration : 1 h 27 min
Bit rate mode : Constant
Bit rate : 192 kb/s
Channel(s) : 2 channels
Channel positions : Front: L R
Sampling rate : 48.0 kHz
Frame rate : 31.250 FPS (1536 SPF)
Bit depth : 16 bits
Compression mode : Lossy
Stream size : 120 MiB (8%)
Title : Kids HD
Language : Ukrainian
Service kind : Complete Main
Default : No
Forced : No

Audio #3
ID : 4
Format : AC-3
Format/Info : Audio Coding 3
Format settings, Endianness : Big
Codec ID : A_AC3
Duration : 1 h 27 min
Bit rate mode : Constant
Bit rate : 384 kb/s
Channel(s) : 6 channels
Channel positions : Front: L C R, Side: L R, LFE
Sampling rate : 48.0 kHz
Frame rate : 31.250 FPS (1536 SPF)
Bit depth : 16 bits
Compression mode : Lossy
Stream size : 240 MiB (16%)
Title : Original
Language : German
Service kind : Complete Main
Default : No
Forced : No

Text
ID : 5
Format : UTF-8
Codec ID : S_TEXT/UTF8
Codec ID/Info : UTF-8 Plain Text
Duration : 1 h 21 min
Bit rate : 72 b/s
Count of elements : 1246
Stream size : 43.2 KiB (0%)
Title : Full
Language : German
Default : No
Forced : No
Скріншоти
Джерело:


 Трекер:    Зареєстрований   

Завантажити / скачати мультфільм українською



відео для новачків



 Зареєстрований:   2021-01-26 22:27
 Розмір:   1.42 GB 
 Оцінка мультфільму:   10/10 (Голосів: 5)
   
Ваш часовий пояс: GMT + 2 Години

Нова тема   Відповісти