Простір (Сезон 4) / The Expanse (Season 4) (2019) 4K 2160p H.265 HDR Ukr/Eng | Sub Eng

Нові коментарі

Нова тема   Відповісти
Автор Повідомлення
ievgensobko 
Новенький


З нами з: 05.01.16
Востаннє: 01.03.21
Повідомлень: 16

2021-01-26 18:25  
Простір (Сезон 4) / The Expanse (Season 4) (2019) 4K 2160p H.265 HDR Ukr/Eng | Sub Eng



Жанр: наукова фантастика, трилер, детектив
Країна: США



Кінокомпанія: Penguin in a Parka, SeanDanielCo, Alcon Entertainment
Режисер: Террі МакДонаф, Джефф Вулнаф, Роберт Ліберман
Актори: Томас Джейн, Стівен Стрейт, Кес Анвар, Вес Четем та інші.

Сюжет:
XXIII століття. Людство колонізувало Сонячну систему. Землею править ООН. Колонія на Марсі тепер незалежна і має власну армію. Внутрішні планети залежать від ресурсів поясу астероїдів. Астероїдяни живуть і працюють у космосі, повітря і вода у них цінується більше за золото. Десятиріччями назрівав конфлікт, який поставив Землю, Марс і Пояс на грань війни. І для її початку вистачить і однієї іскри.


Тривалість: 1 серія: 45:00 (цілком серій: 10)
Перелік серій

Простір | S04E01 | Нова Тера
Простір | S04E02 | Поламаний вантаж
Простір | S04E03 | Субдукція
Простір | S04E04 | Ретроград
Простір | S04E05 | Пригноблювач
Простір | S04E06 | Зсув
Простір | S04E07 | Постріл в темряві
Простір | S04E08 | Одноокий чоловік
Простір | S04E09 | Століття
Простір | S04E10 | Пожар Сіболи
Якість: 4K 2160p [Amazon]

Відео:
кодек: H.265 (HEVC)
розмір кадру: 3840 х 1920
бітрейт: 14.6 Мбіт/сек
бітова глибина: 10 біт
кольоровий простір: BT.2020 (HDR)

Увага! Перед завантаженням переконайтесь, що ваш пристрій відтворення (та/або ПЗ) підтримує H.265 (HEVC)

Аудіо # 1:
мова: українська
переклад: двоголосий закадровий [ AniUA ]
кодек: 5.1
бітрейт: 640 кб/с

Аудіо # 2:
мова: англійська
переклад: оригінал
кодек: E- 5.1
бітрейт: 640 кб/с

Субтитри:
мова: англійська
тип: програмні (м'які)
формат: *.srt
Info

Код:

General
Unique ID                                : 218620053804306759988176506906249096557 (0xA478B0D8B24E5580EB8D4BC3FBB16D6D)
Complete name                            : /mnt/DATA/TVShows/The Expanse/The.Expanse.S04.2019.AMZN..2160p.x265.HDR.[Ukr.Eng]/The.Expanse.S04E01.New.Terra.AMZN..2160p.x265.HDR.[Ukr.Eng].
Format                                   :
Format version                           : Version 4
File size                                : 5.46 GiB
Duration                                 : 49 min 17 s
Overall bit rate                         : 15.9 Mb/s
Movie name                               : The Expanse | S04E01 | New Terra
Encoded date                             : UTC 2021-01-26 11:42:05
Writing application                      : v52.0.0 ('Secret For The Mad') 64-bit
Writing library                          : libebml v1.4.1 + v1.6.2

Video
ID                                       : 1
Format                                   : HEVC
Format/Info                              : High Efficiency Video Coding
Format profile                           : Main [email protected]@Main
HDR format                               : SMPTE ST 2094 App 4, Version 0, HDR10 compatible
Codec ID                                 : V_MPEGH/ISO/HEVC
Duration                                 : 49 min 17 s
Bit rate                                 : 14.6 Mb/s
Width                                    : 3 840 pixels
Height                                   : 2 160 pixels
Display aspect ratio                     : 16:9
Frame rate mode                          : Constant
Frame rate                               : 23.976 (24000/1001) FPS
Standard                                 : NTSC
Color space                              : YUV
Chroma subsampling                       : 4:2:0 (Type 2)
Bit depth                                : 10 bits
Bits/(Pixel*Frame)                       : 0.073
Stream size                              : 5.02 GiB (92%)
Default                                  : Yes
Forced                                   : No
Color range                              : Limited
Color primaries                          : BT.2020
Transfer characteristics                 : PQ
Matrix coefficients                      : BT.2020 non-constant
Mastering display color primaries        : Display P3
Mastering display luminance              : min: 0.0001 cd/m2, max: 1000 cd/m2
Maximum Content Light Level              : 1000 cd/m2
Maximum Frame-Average Light Level        : 996 cd/m2

Audio #1
ID                                       : 2
Format                                   : AC-3
Format/Info                              : Audio Coding 3
Commercial name                          : Dolby Digital
Codec ID                                 : A_AC3
Duration                                 : 49 min 17 s
Bit rate mode                            : Constant
Bit rate                                 : 640 kb/s
Channel(s)                               : 6 channels
Channel layout                           : L R C LFE Ls Rs
Sampling rate                            : 48.0 kHz
Frame rate                               : 31.250 FPS (1536 SPF)
Compression mode                         : Lossy
Stream size                              : 226 MiB (4%)
Title                                    : двоголосий закадровий AniUA
Language                                 : Ukrainian
Service kind                             : Complete Main
Default                                  : Yes
Forced                                   : No

Audio #2
ID                                       : 3
Format                                   : E-AC-3
Format/Info                              : Enhanced AC-3
Commercial name                          : Dolby Digital Plus
Codec ID                                 : A_EAC3
Duration                                 : 49 min 17 s
Bit rate mode                            : Constant
Bit rate                                 : 640 kb/s
Channel(s)                               : 6 channels
Channel layout                           : L R C LFE Ls Rs
Sampling rate                            : 48.0 kHz
Frame rate                               : 31.250 FPS (1536 SPF)
Compression mode                         : Lossy
Stream size                              : 226 MiB (4%)
Title                                    : English
Language                                 : English
Service kind                             : Complete Main
Default                                  : No
Forced                                   : No

Text
ID                                       : 4
Format                                   : UTF-8
Codec ID                                 : S_TEXT/UTF8
Codec ID/Info                            : UTF-8 Plain Text
Duration                                 : 47 min 6 s
Bit rate                                 : 61 b/s
Count of elements                        : 765
Stream size                              : 21.1 KiB (0%)
Title                                    : English [SDH]
Language                                 : English
Default                                  : No
Forced                                   : No

Menu
00:00:00.000                             : en:Amazon Original
00:00:05.000                             : en:Previous Season
00:01:35.000                             : en:Opening Credits
00:02:43.000                             : en:Blockade running
00:05:00.000                             : en:The next clue to the case
00:08:32.000                             : en:A call from Peaches
00:11:34.000                             : en:The investigator gets his wish
00:15:03.000                             : en:The roci and her crew prepares for the long haul
00:17:02.000                             : en:Bobbie tries to settle in
00:21:20.000                             : en:A pirate's perspective
00:24:40.000                             : en:Belter determination
00:26:01.000                             : en:The Roci flies by Medina Station
00:29:52.000                             : en:Trading war stories
00:31:50.000                             : en:My friend had a boyfriend with an imaginary friend
00:33:32.000                             : en:Ilus v. New Tera
00:38:59.000                             : en:Down the well
00:44:27.000                             : en:Traitors or saviors
00:47:04.000                             : en:End Credits
Скріншоти






Джерело: &
Особиста оцінка: 8 - мені сподобалося



Авторський реліз (завантажувати можна без реєстрації)
 Трекер:    Зареєстрований   

Завантажити / скачати серіал українською



відео для новачків



 Зареєстрований:   2021-01-26 18:25
 Розмір:   52.21 GB 
 Оцінка серіалу:   10/10 (Голосів: 4)
   
Ваш часовий пояс: GMT + 2 Години

Нова тема   Відповісти