Щонеділі / Any Given Sunday (1999) 1080p H.265 Ukr/Eng | Sub Eng [Director's Cut]

Нові коментарі

Нова тема   Відповісти
Останній раз роздавалося ievgensobko (2021-02-24)
Автор Повідомлення
Anonymous 







2021-01-26 14:40  
Щонеділі / Any Given Sunday (1999) 1080p H.265 Ukr/Eng | Sub Eng [Director's Cut]

Щонеділі / Any Given Sunday (1999) 1080p H.265 Ukr/Eng | Sub Eng [Director's Cut]


Жанр: спорт, драма
Країна: США
Кінокомпанія: Warner Bros. Ixtlan,Donners' Company
Режисер: Олівер Стоун
Актори: Аль Пачіно , Кемерон Діаз, Денніс Куейд, Джеймс Вудс, Джеймі Фокс, ЛЛ Кул Джей, Метью Модайн, Джим Браун, Лоуренс Тейлор, Біл Белламі

Сюжет:
Чотири роки тому «Акули Майамі» перебували на вершині чемпіонату. Однак зараз команда перебуває в середині таблиці і вже програла 3 рази поспіль. Головний тренер команди Тоні Діамато стикається з проблемами як в команді, так і поза нею.

Тривалість: 02:37:11
Якість: [Director's Cut]

Відео:
кодек: H.265 (HEVC)
розмір кадру: 1920 x 800
бітрейт: 7 554 кб/с
бітова глибина: 10 біт

Увага! Перед завантаженням переконайтесь, що ваш пристрій відтворення (та/або ПЗ) підтримує H.265 (HEVC)

Аудіо # 1:
мова: українська
озвучення: багатоголосе закадрове
кодек: AC-3 5.1
бітрейт: 384 кб/с

Аудіо # 2:
мова: англійська
озвучення: оригінал
кодек: AC-3 5.1
бітрейт: 640 кб/с

Субтитри # 1-2: (Full, SDH)
мова: англійська
тип: програмні (м'які)
формат: *.srt


Інформація про файл
Код:
General
Unique ID                                : 120494664376653456248380190385117773055 (0x5AA66DA03B43B0433ECBA39D36D6BCFF)
Complete name                            : Any Given Sunday (1999) [Director's Cut] 1080p H.265 [UKR_ENG] [Hurtom].
Format                                   :
Format version                           : Version 4
File size                                : 9.42 GiB
Duration                                 : 2 h 37 min
Overall bit rate                         : 8 580 kb/s
Movie name                               : Щонеділі / Any Given Sunday (1999) [Director's Cut]
Encoded date                             : UTC 2021-01-26 12:13:18
Writing application                      : v20.0.0 ('I Am The Sun') 64-bit
Writing library                          : libebml v1.3.5 + v1.4.8
Cover                                    : Yes
Attachments                              : Cover.jpg

Video
ID                                       : 1
Format                                   : HEVC
Format/Info                              : High Efficiency Video Coding
Format profile                           : Main [email protected]@High
Codec ID                                 : V_MPEGH/ISO/HEVC
Duration                                 : 2 h 37 min
Bit rate                                 : 7 554 kb/s
Width                                    : 1 920 pixels
Height                                   : 800 pixels
Display aspect ratio                     : 2.40:1
Frame rate mode                          : Constant
Frame rate                               : 23.976 (23976/1000) FPS
Original frame rate                      : 23.976 (24000/1001) FPS
Color space                              : YUV
Chroma subsampling                       : 4:2:0
Bit depth                                : 10 bits
Bits/(Pixel*Frame)                       : 0.205
Stream size                              : 8.29 GiB (88%)
Title                                    : Щонеділі / Any Given Sunday (1999) [Director's Cut]
Writing library                          : x265 3.4+12-g9103319fc:[Windows][GCC 10.2.0][64 bit] 10bit
Encoding settings                        : cpuid=1111039 / frame-threads=4 / numa-pools=16 / wpp / no-pmode / no-pme / no-psnr / no-ssim / log-level=2 / input-csp=1 / input-res=1920x800 / interlace=0 / total-frames=226119 / level-idc=41 / high-tier=1 / uhd-bd=0 / ref=5 / no-allow-non-conformance / no-repeat-headers / annexb / no-aud / no-hrd / info / hash=0 / no-temporal-layers / open-gop / min-keyint=23 / keyint=240 / gop-lookahead=0 / bframes=10 / b-adapt=2 / b-pyramid / bframe-bias=0 / rc-lookahead=60 / lookahead-slices=1 / scenecut=40 / hist-scenecut=0 / radl=0 / no-splice / no-intra-refresh / ctu=32 / min-cu-size=8 / rect / amp / max-tu-size=32 / tu-inter-depth=4 / tu-intra-depth=4 / limit-tu=1 / rdoq-level=1 / dynamic-rd=0.00 / no-ssim-rd / signhide / no-tskip / nr-intra=0 / nr-inter=0 / no-constrained-intra / no-strong-intra-smoothing / max-merge=5 / limit-refs=0 / no-limit-modes / me=3 / subme=7 / merange=57 / temporal-mvp / no-frame-dup / no-hme / weightp / weightb / no-analyze-src-pics / deblock=-2:-2 / no-sao / no-sao-non-deblock / rd=6 / selective-sao=0 / no-early-skip / no-rskip / no-fast-intra / no-tskip-fast / no-cu-lossless / b-intra / no-splitrd-skip / rdpenalty=0 / psy-rd=2.00 / psy-rdoq=1.00 / no-rd-refine / no-lossless / cbqpoffs=0 / crqpoffs=0 / rc=crf / crf=20.2 / qcomp=0.70 / qpstep=4 / stats-write=0 / stats-read=0 / vbv-maxrate=50000 / vbv-bufsize=50000 / vbv-init=0.9 / crf-max=0.0 / crf-min=0.0 / ipratio=1.40 / pbratio=1.30 / aq-mode=2 / aq-strength=1.00 / no-cutree / zone-count=0 / no-strict-cbr / qg-size=32 / no-rc-grain / qpmax=69 / qpmin=0 / no-const-vbv / sar=1 / overscan=0 / videoformat=5 / range=0 / colorprim=1 / transfer=1 / colormatrix=1 / chromaloc=0 / display-window=0 / cll=0,0 / min-luma=0 / max-luma=1023 / log2-max-poc-lsb=8 / vui-timing-info / vui-hrd-info / slices=1 / no-opt-qp-pps / no-opt-ref-list-length-pps / no-multi-pass-opt-rps / scenecut-bias=0.05 / hist-threshold=0.01 / no-opt-cu-delta-qp / no-aq-motion / no-hdr10 / no-hdr10-opt / no-dhdr10-opt / no-idr-recovery-sei / analysis-reuse-level=0 / analysis-save-reuse-level=0 / analysis-load-reuse-level=0 / scale-factor=0 / refine-intra=0 / refine-inter=0 / refine-mv=0 / refine-ctu-distortion=0 / no-limit-sao / ctu-info=0 / no-lowpass-dct / refine-analysis-type=0 / copy-pic=1 / max-ausize-factor=1.0 / no-dynamic-refine / no-single-sei / no-hevc-aq / no-svt / no-field / qp-adaptation-range=1.00 / no-scenecut-aware-qpconformance-window-offsets / right=0 / bottom=0 / decoder-max-rate=0
Language                                 : English
Default                                  : Yes
Forced                                   : No
Color range                              : Limited
Color primaries                          : BT.709
Transfer characteristics                 : BT.709
Matrix coefficients                      : BT.709

Audio #1
ID                                       : 2
Format                                   : AC-3
Format/Info                              : Audio Coding 3
Commercial name                          : Dolby Digital
Codec ID                                 : A_AC3
Duration                                 : 2 h 37 min
Bit rate mode                            : Constant
Bit rate                                 : 384 kb/s
Channel(s)                               : 6 channels
Channel layout                           : L R C LFE Ls Rs
Sampling rate                            : 48.0 kHz
Frame rate                               : 31.250 FPS (1536 SPF)
Compression mode                         : Lossy
Stream size                              : 432 MiB (4%)
Title                                    : AC-3 / 5.1 Ch / 384 kbps / MVO / Інтер
Language                                 : Ukrainian
Service kind                             : Complete Main
Default                                  : Yes
Forced                                   : Yes

Audio #2
ID                                       : 3
Format                                   : AC-3
Format/Info                              : Audio Coding 3
Commercial name                          : Dolby Digital
Codec ID                                 : A_AC3
Duration                                 : 2 h 37 min
Bit rate mode                            : Constant
Bit rate                                 : 640 kb/s
Channel(s)                               : 6 channels
Channel layout                           : L R C LFE Ls Rs
Sampling rate                            : 48.0 kHz
Frame rate                               : 31.250 FPS (1536 SPF)
Compression mode                         : Lossy
Delay relative to video                  : 71 ms
Stream size                              : 720 MiB (7%)
Title                                    : AC-3 / 5.1 Ch / 640 kbps / Original
Language                                 : English
Service kind                             : Complete Main
Default                                  : No
Forced                                   : No

Text #1
ID                                       : 4
Format                                   : UTF-8
Codec ID                                 : S_TEXT/UTF8
Codec ID/Info                            : UTF-8 Plain Text
Duration                                 : 2 h 32 min
Bit rate                                 : 65 b/s
Count of elements                        : 2079
Stream size                              : 73.4 KiB (0%)
Title                                    : Full
Language                                 : English
Default                                  : No
Forced                                   : No

Text #2
ID                                       : 5
Format                                   : UTF-8
Codec ID                                 : S_TEXT/UTF8
Codec ID/Info                            : UTF-8 Plain Text
Duration                                 : 2 h 32 min
Bit rate                                 : 71 b/s
Count of elements                        : 2207
Stream size                              : 80.1 KiB (0%)
Title                                    : SDH
Language                                 : English
Default                                  : No
Forced                                   : No

Menu
00:00:00.000                             : en:There Goes History
00:04:25.348                             : en:Two in a Row
00:05:42.759                             : en:Mystery Man
00:10:05.479                             : en:Hurting Men
00:11:54.088                             : en:Half-Time Speech
00:14:18.941                             : en:Go to the Buick
00:18:00.996                             : en:Turning Up the Volume
00:20:37.819                             : en:Post-Game 1
00:22:59.878                             : en:Hospital Visit
00:25:13.637                             : en:Bar Talk
00:29:35.148                             : en:Matters of Economics
00:36:18.759                             : en:Off the Playbook (Game 2)
00:41:06.422                             : en:That Is Football (My Niggas)!
00:43:33.944                             : en:*Benefit Party
00:47:05.030                             : en:Getting and Going Along (Cheek to Cheek)
00:50:08.880                             : en:Lovers Quarrel
00:51:49.856                             : en:Airplane to L.a.
00:53:41.009                             : en:Game 3
00:57:35.827                             : en:Steamin' Beamen (Revolution)
01:01:26.432                             : en:*Post-Game 3
01:04:49.927                             : en:New Blood (Como Ves, My Name Is Willie)
01:08:00.826                             : en:*One Can, the Other Can't
01:11:14.520                             : en:*Media Star
01:14:42.102                             : en:Lunchtime Argument
01:20:15.352                             : en:*Sharks Party
01:22:11.760                             : en:Stormy Weather (Game 4)
01:29:25.985                             : en:Back to Basics
01:31:46.125                             : en:Dreams of Warriors
01:37:02.149                             : en:Steamroom
01:38:58.557                             : en:Cap's Decision
01:43:38.253                             : en:Willie Finds Vanessa
01:46:31.093                             : en:*Tony Visits Margaret
01:48:31.379                             : en:Pantheon Rings (I Can't Face the Music)
01:52:20.734                             : en:Reluctant Tasks
01:55:25.126                             : en:Inches Speak
01:59:58.065                             : en:Cap's Game (Blue on Blue)
02:04:10.693                             : en:The Commissioner
02:05:52.545                             : en:Half-Time
02:09:33.098                             : en:*Visual Damage
02:11:19.705                             : en:Willie's Game
02:14:03.660                             : en:4Th and 1
02:17:05.759                             : en:Christina and Margaret Reconnect
02:19:44.250                             : en:Willie and the Team
02:22:35.672                             : en:Final Play
02:25:28.720                             : en:Together
02:28:29.400                             : en:*Tony's Plans
02:32:33.727                             : en:End Credits (Any Given Sunday, Bended Knee)
Лог кодування
Код:
x265 [info]: frame I: 3042, Avg QP:17.70 kb/s: 21729.40
x265 [info]: frame P: 53798, Avg QP:19.15 kb/s: 14168.69
x265 [info]: frame B: 169279, Avg QP:21.33 kb/s: 5196.30
x265 [info]: Weighted P-Frames: Y:6.9% UV:5.5%
x265 [info]: Weighted B-Frames: Y:6.1% UV:4.2%
x265 [info]: consecutive B-frames: 14.1% 9.6% 9.2% 30.3% 8.1% 26.7% 1.3% 0.5% 0.1% 0.0% 0.1%

encoded 226119 frames in 277264.41s (0.82 fps), 7553.43 kb/s, Avg QP:20.76
Світлини




Джерело: &
Особиста оцінка: 0 - не дивився


Срібний реліз (на рейтинг впливає 50% завантаженого)
 Трекер:    Зареєстрований   

Завантажити / скачати фільм українською



відео для новачків



 Зареєстрований:   2021-01-26 14:40
 Розмір:   9.42 GB 
 Оцінка фільму:   10/10 (Голосів: 2)
   
Інші релізи
   Щонеділі / Any Given Sunday (1999) 1080p Ukr/Eng | Sub Eng drop_plz  3 / 0   9.5 GB   2020-02-01 14:57 
   Щонеділі / Any Given Sunday (1999) AVC Ukr/Eng | Sub Eng yasav  4 / 0   2.38 GB   2018-10-28 15:08 
   Щонеділі / Any Given Sunday (1999) Ukr/Eng | Sub Eng Romario_O  1 / 0   2.9 GB   2010-04-23 10:58 
Ваш часовий пояс: GMT + 2 Години

Нова тема   Відповісти