Воїн (Сезон 2) / Warrior (Season 2) (2020) 1080p Ukr/Eng | Sub Eng

Нові коментарі

Нова тема   Відповісти
Автор Повідомлення
ievgensobko 
Новенький


З нами з: 05.01.16
Востаннє: 07.03.21
Повідомлень: 17

2021-01-26 12:34  
Воїн (Сезон 2) / Warrior (Season 2) (2020) 1080p Ukr/Eng | Sub Eng



Жанр: драма, історичний, пригодницький, екшн, бойовик
Країна: США



Кінокомпанія: Bruce Lee Entertainment, Cinemax, Perfect Storm Entertainment, Tropper / Schickler Productions
Режисер: Лоні Перістер, Лін Одінг, Девід Петрарка, Асаф Бернштейн
Актори: Ендрю Коджі, Джейсон Тобін, Олівія Ченг, Кіран Бев, Річ Тінг, Раян Крюгер

Сюжет:
В середині XIX століття імперія Цин пережила дві Опіумні війни з Великобританією і занурилася у важку економічну кризу. Наслухавшись байок про незчисленні скарби американських золотошукачів, жителі Піднебесної чкурнули до Нового Світу. Влада США швидко пошкодували, що не взяли азіатських мігрантів на облік. Всього за пару десятиліть Америку наповнили десятки тисяч китайців, багато з яких почали займатися рекетом, проституцією, організацією підпільних казино та іншими брудними справами. У 1878 році в порт Сан-Франциско прибуває знавець бойових мистецтв А Сам. Хлопець хоче знайти свою сестру і скоріше повернутися в Піднебесну, проте несподіваний поворот долі змушує його затриматися в країні безмежних можливостей. Не встигає китаєць ступити на американську землю, як його починають задирати хулігани. Саму не залишається нічого іншого, як пустити в хід кулаки. Чутки про його ефектну розправу над декількома суперниками долітають до місцевого кримінального авторитета, якому якраз терміново потрібні вірні люди і досвідчені бійці. А Сам ще не здогадується, що прийнявши запрошення Великого боса, він потрапить в низку кривавих розборок з іншими угрупованнями Чайнатауна, що покладе початок небезпечного протистояння з продажними поліцейськими і корумпованими політиками.


Тривалість: 1 серія: 47:00 (цілком серій: 10)
Перелік серій

Воїн S02E01 Вчися терпіти, або найми тілоохоронця
Воїн S02E02 Китайський зв’язок
Воїн S02E03 Ми так справи не ведемо
Воїн S02E04 Якщо ви не бачите крові, значить не прийшли грати
Воїн S02E05 Не пити, не трахатися, не молитися в церкві
Воїн S02E06 Для людини з молотком, все навколо здається цвяхами
Воїн S02E07 Якщо довго стояти біля річки
Воїн S02E08 Всіх ворогів, зовнішніх та внутрішніх
Воїн S02E09 Увійти в дракона
Воїн S02E10 Чоловік на стіні
Якість: 1080p

Відео:
кодек:
розмір кадру: 1920 х 1080
бітрейт: ~7 Мбіт/сек (залежить від серії)

Аудіо # 1:
мова: українська
переклад: багатоголосий закадровий [ DniproFilm ]
кодек: 5.1
бітрейт: 384 кб/с

Аудіо # 2:
мова: англійська
переклад: оригінал
кодек: E- 5.1
бітрейт: 640 кб/с

Субтитри:
мова: англійська
тип: програмні (м'які)
формат: *.srt
Info

Код:

General
Unique ID                                : 65014854886423019982163571940887227326 (0x30E967D474CD9922F56253215E45EBBE)
Complete name                            : /mnt/DATA/TVShows/Warrior/Warrior.S02.2020..1080p..[Ukr.Eng]/Warrior.S02E09.Enter.the.Dragon..1080p..[Ukr.Eng].
Format                                   :
Format version                           : Version 4
File size                                : 3.29 GiB
Duration                                 : 52 min 27 s
Overall bit rate                         : 8 993 kb/s
Movie name                               : Warrior | S02E09 | Enter the Dragon
Encoded date                             : UTC 2021-01-26 07:51:57
Writing application                      : v52.0.0 ('Secret For The Mad') 64-bit
Writing library                          : libebml v1.4.1 + v1.6.2

Video
ID                                       : 1
Format                                   : AVC
Format/Info                              : Advanced Video Codec
Format profile                           : [email protected]
Format settings                          : CABAC / 4 Ref Frames
Format settings, CABAC                   : Yes
Format settings, Reference frames        : 4 frames
Codec ID                                 : V_MPEG4/ISO/AVC
Duration                                 : 52 min 27 s
Bit rate mode                            : Constant
Bit rate                                 : 7 967 kb/s
Nominal bit rate                         : 10 000 kb/s
Width                                    : 1 920 pixels
Height                                   : 1 080 pixels
Display aspect ratio                     : 16:9
Frame rate mode                          : Constant
Frame rate                               : 23.976 (24000/1001) FPS
Color space                              : YUV
Chroma subsampling                       : 4:2:0
Bit depth                                : 8 bits
Scan type                                : Progressive
Bits/(Pixel*Frame)                       : 0.160
Stream size                              : 2.92 GiB (89%)
Language                                 : English
Default                                  : Yes
Forced                                   : No
Color range                              : Limited
Color primaries                          : BT.709
Transfer characteristics                 : BT.709
Matrix coefficients                      : BT.709

Audio #1
ID                                       : 2
Format                                   : AC-3
Format/Info                              : Audio Coding 3
Commercial name                          : Dolby Digital
Codec ID                                 : A_AC3
Duration                                 : 52 min 27 s
Bit rate mode                            : Constant
Bit rate                                 : 384 kb/s
Channel(s)                               : 6 channels
Channel layout                           : L R C LFE Ls Rs
Sampling rate                            : 48.0 kHz
Frame rate                               : 31.250 FPS (1536 SPF)
Compression mode                         : Lossy
Stream size                              : 144 MiB (4%)
Title                                    : DD 5.1 @ 384 kbps - DniproFilm
Language                                 : Ukrainian
Service kind                             : Complete Main
Default                                  : Yes
Forced                                   : No

Audio #2
ID                                       : 3
Format                                   : E-AC-3
Format/Info                              : Enhanced AC-3
Commercial name                          : Dolby Digital Plus
Codec ID                                 : A_EAC3
Duration                                 : 52 min 27 s
Bit rate mode                            : Constant
Bit rate                                 : 640 kb/s
Channel(s)                               : 6 channels
Channel layout                           : L R C LFE Ls Rs
Sampling rate                            : 48.0 kHz
Frame rate                               : 31.250 FPS (1536 SPF)
Compression mode                         : Lossy
Delay relative to video                  : 6 ms
Stream size                              : 240 MiB (7%)
Title                                    : E- @ 640 kbps - Original
Language                                 : English
Service kind                             : Complete Main
Default                                  : No
Forced                                   : No

Text #1
ID                                       : 4
Format                                   : UTF-8
Codec ID                                 : S_TEXT/UTF8
Codec ID/Info                            : UTF-8 Plain Text
Duration                                 : 38 min 49 s
Bit rate                                 : 2 b/s
Count of elements                        : 22
Stream size                              : 605 Bytes (0%)
Title                                    : Text only
Language                                 : Ukrainian
Default                                  : No
Forced                                   : No

Text #2
ID                                       : 5
Format                                   : UTF-8
Codec ID                                 : S_TEXT/UTF8
Codec ID/Info                            : UTF-8 Plain Text
Duration                                 : 52 min 12 s
Bit rate                                 : 48 b/s
Count of elements                        : 791
Stream size                              : 18.5 KiB (0%)
Title                                    : SDH
Language                                 : English
Default                                  : No
Forced                                   : No
Скріншоти





Джерело: &
Особиста оцінка: 8 - мені сподобалося


Авторський реліз (завантажувати можна без реєстрації)
 Трекер:    Зареєстрований   

Завантажити / скачати серіал українською



відео для новачків



 Зареєстрований:   2021-01-26 12:34
 Розмір:   28.82 GB 
 Оцінка серіалу:   10/10 (Голосів: 5)
   
lm_2210 
Новенький


З нами з: 28.10.10
Востаннє: 07.03.21
Повідомлень: 24

2021-01-26 19:35  
Топ серіал за всю історію! Рекомендую!
y.kushnir 
Новенький


З нами з: 23.01.16
Востаннє: 05.03.21
Повідомлень: 13

2021-02-07 12:59  
З нетерпінням чекаю наступний сезон
Ваш часовий пояс: GMT + 2 Години

Нова тема   Відповісти