Ліга Європи УЄФА 2011/12 | Металіст Харків - Ред Булл Зальцбург | 1/16 фіналу, Матч 2 | Футбол 3 (2011) IPTV

Нові коментарі

Нова тема   Відповісти
Автор Повідомлення
misamisk 
Поважний учасник


З нами з: 16.10.17
Востаннє: 08.03.21
Повідомлень: 157

2021-01-26 11:29  
Ліга Європи УЄФА 2011/12 | Металіст Харків - Ред Булл Зальцбург | 1/16 фіналу, Матч 2 | Футбол 3 (2011) IPTV

Ліга Європи УЄФА 2011/12 | Металіст Харків - Ред Булл Зальцбург | 1/16 фіналу, Матч 2 | Футбол 3 (2011) IPTV

Телеканал: Футбол 3
Опис:
Матч відбувся 23 лютого 2011 року у Харкові на ОСК "Металіст".
Матч обслуговували:

Рефері: Антоні Готьєр (Франція)
Асистенти рефері: Мішель Аноньєр (Франція), Фредерік Кано (Франція)


Тривалість: 01:44:57
Якість:
Відео:
кодек:
розмір кадру: 1920x1080
бітрейт: ~3500 кб/с

Аудіо:
мова: українська
переклад: одноголосий закадровий | Андрій Столярчук
кодек: 2.0
бітрейт: 129 кб/с
Стартові склади
Info
Код:
General
Unique ID                                : 232589886135792984314764945711463484638 (0xAEFB2EC1F514332608454F8153E54CDE)
Complete name                            : UEFA.Europa.League.2011-12.Round.of.32.Metalist.Kharkiv-Red.Bull.Salzburg.Match.2.IPTV.
Format                                   :
Format version                           : Version 4
File size                                : 2.77 GiB
Duration                                 : 1 h 44 min
Overall bit rate                         : 3 772 kb/s
Movie name                               : UEFA Europa League 2011/12. Round of 32. Metalist Kharkiv - Red Bull Salzburg. Match 2
Encoded date                             : UTC 2021-01-24 13:04:08
Writing application                      : v24.0.0 ('Beyond The Pale') 64-bit
Writing library                          : libebml v1.3.6 + v1.4.9

Video
ID                                       : 1
Format                                   : AVC
Format/Info                              : Advanced Video Codec
Format profile                           : [email protected]
Format settings                          : 2 Ref Frames
Format settings, CABAC                   : No
Format settings, Reference frames        : 2 frames
Format settings, GOP                     : M=3, N=25
Codec ID                                 : V_MPEG4/ISO/AVC
Duration                                 : 1 h 44 min
Bit rate                                 : 3 641 kb/s
Nominal bit rate                         : 2 369 kb/s
Width                                    : 1 920 pixels
Height                                   : 1 080 pixels
Display aspect ratio                     : 16:9
Frame rate mode                          : Constant
Frame rate                               : 25.000 FPS
Original frame rate                      : 24.000 FPS
Color space                              : YUV
Chroma subsampling                       : 4:2:0
Bit depth                                : 8 bits
Scan type                                : Progressive
Bits/(Pixel*Frame)                       : 0.070
Stream size                              : 2.67 GiB (97%)
Title                                    : UEFA Europa League 2011/12. Round of 32. Metalist Kharkiv - Red Bull Salzburg. Match 2
Writing library                          : core 160 r3000
Encoding settings                        : cabac=0 / ref=2 / deblock=1:0:0 / analyse=0x1:0x111 / me=hex / subme=4 / psy=1 / psy_rd=1.00:0.00 / mixed_ref=0 / me_range=16 / chroma_me=1 / trellis=1 / 8x8dct=0 / cqm=0 / deadzone=21,11 / fast_pskip=1 / chroma_qp_offset=0 / threads=2 / lookahead_threads=1 / sliced_threads=0 / nr=0 / decimate=1 / interlaced=0 / bluray_compat=0 / constrained_intra=0 / bframes=3 / b_pyramid=2 / b_adapt=1 / b_bias=0 / direct=1 / weightb=1 / open_gop=0 / weightp=1 / keyint=25 / keyint_min=2 / scenecut=0 / intra_refresh=0 / rc_lookahead=20 / rc=abr / mbtree=1 / bitrate=2369 / ratetol=1.0 / qcomp=0.60 / qpmin=0 / qpmax=69 / qpstep=4 / vbv_maxrate=19999 / vbv_bufsize=3750 / nal_hrd=none / filler=0 / ip_ratio=1.40 / aq=1:1.00
Language                                 : English
Default                                  : Yes
Forced                                   : No

Audio
ID                                       : 2
Format                                   : LC
Format/Info                              : Advanced Audio Codec Low Complexity
Codec ID                                 : A_AAC-2
Duration                                 : 1 h 44 min
Bit rate                                 : 128 kb/s
Channel(s)                               : 2 channels
Channel layout                           : L R
Sampling rate                            : 48.0 kHz
Frame rate                               : 46.875 FPS (1024 SPF)
Compression mode                         : Lossy
Stream size                              : 96.3 MiB (3%)
Title                                    : Commentaries by Andriy Stoliarchuk
Language                                 : English
Default                                  : Yes
Forced                                   : No
Скріншоти


Золотий реліз (завантажене не впливає на рейтинг)
 Трекер:    Зареєстрований   

Завантажити / скачати торрент



відео для новачків



 Зареєстрований:   2021-01-26 11:29
 Розмір:   2.77 GB 
 Оцінка:   10/10 (Голосів: 3)
   
staf777 
Відео Гуртом - підтримка та поширення
Відео Гуртом - підтримка та поширення


З нами з: 16.11.16
Востаннє: 08.03.21
Повідомлень: 5133

2021-01-26 12:23  
... була ж колись така команда - котра чинила гідну конкуренцію Динамо та Шахтарю у ЧУ ... нажаль була ...
601сан 
VIP


З нами з: 22.05.12
Востаннє: 09.03.21
Повідомлень: 353

2021-01-26 13:50  
staf777
Нажаль у нас знищили не лише "Металіст" Sad (2)
misamisk
Дякую за черговий ретро матч Wink (1)

staf777 
Відео Гуртом - підтримка та поширення
Відео Гуртом - підтримка та поширення


З нами з: 16.11.16
Востаннє: 08.03.21
Повідомлень: 5133

2021-01-26 14:12  
Цитата:
Нажаль у нас знищили не лише "Металіст"

на жаль так - Дніпро колись давав просратись Шахтарю та Динамо - а Чорноморець кінця 90-х та і Карпати колись були не поганою командою ... єх були часи ...

misamisk 
Поважний учасник


З нами з: 16.10.17
Востаннє: 08.03.21
Повідомлень: 157

2021-01-29 21:27  
staf777
Завтрашнй реліз Вам має сподобатися, буде "Гент - Шахтар" із сезону Ліги Європи 16/17

601сан 
VIP


З нами з: 22.05.12
Востаннє: 09.03.21
Повідомлень: 353

2021-01-30 12:06  
misamisk написано:
Завтрашнй реліз Вам має сподобатися, буде "Гент - Шахтар

Шикарний матч. Там буде що подивитись.

Ваш часовий пояс: GMT + 2 Години

Нова тема   Відповісти