Простір (Сезон 3) / The Expanse (Season 3) (2018) 4K 2160p H.265 HDR Ukr/Eng | Sub Eng

Нові коментарі

Нова тема   Відповісти
Автор Повідомлення
ievgensobko 
Новенький


З нами з: 05.01.16
Востаннє: 26.02.21
Повідомлень: 16

2021-01-25 18:05  
Простір (Сезон 3) / The Expanse (Season 3) (2018) 4K 2160p H.265 HDR Ukr/Eng | Sub Eng

Простір (Сезон 3) / The Expanse (Season 3) (2018) 4K 2160p H.265 HDR Ukr/Eng | Sub Eng


Жанр: наукова фантастика, трилер, детектив
Країна: США



Кінокомпанія: Penguin in a Parka, SeanDanielCo, Alcon Entertainment
Режисер: Террі МакДонаф, Джефф Вулнаф, Роберт Ліберман
Актори: Томас Джейн, Стівен Стрейт, Кес Анвар, Вес Четем та інші.

Сюжет:
XXIII століття. Людство колонізувало Сонячну систему. Землею править ООН. Колонія на Марсі тепер незалежна і має власну армію. Внутрішні планети залежать від ресурсів поясу астероїдів. Астероїдяни живуть і працюють у космосі, повітря і вода у них цінується більше за золото. Десятиріччями назрівав конфлікт, який поставив Землю, Марс і Пояс на грань війни. І для її початку вистачить і однієї іскри.


Тривалість: 1 серія: 45:00 (цілком серій: 13)
Перелік серій

Простір S03E01 Бий або біжи
Простір S03E02 Свій-чужий
Простір S03E03 Гарантоване винищення
Простір S03E04 Перезавантаження
Простір S03E05 Потрійна точка
Простір S03E06 Жертвоприношення
Простір S03E07 Дельта-В
Простір S03E08 Воно зв'язується
Простір S03E09 Непримиренність
Простір S03E10 Небо в кульбабах
Простір S03E11 Полеглий світ
Простір S03E12 Конгрегація
Простір S03E13 Ворота Абаддона
Якість: 4K 2160p [Amazon]

Відео:
кодек: H.265 (HEVC)
розмір кадру: 3840х2160
бітрейт: ~14.5 Мбіт/сек (залежить від серії)
бітова глибина: 10 біт
кольоровий простір: BT.2020 (HDR)

Увага! Перед завантаженням переконайтесь, що ваш пристрій відтворення (та/або ПЗ) підтримує H.265 (HEVC)

Аудіо # 1:
мова: українська
переклад: двоголосий закадровий [ AniUA ]
кодек: 5.1
бітрейт: 640 кб/с

Аудіо # 2:
мова: англійська
переклад: оригінал
кодек: -HD MA 5.1
бітрейт: 3556 кб/с

Субтитри:
мова: англійська
тип: програмні (м'які)
формат: *.srt
Info

Код:

General
Unique ID                                : 10080393698234635514966157265223917202 (0x79569C7F6E167E366403711367D9E92)
Complete name                            : /mnt/DATA/TVShows/The Expanse/The.Expanse.S03.2018.AMZN..2160p.x265.HDR.[Ukr.Eng]/The.Expanse.S03E01.Fight.or.Flight.AMZN..2160p.x265.HDR.[Ukr.Eng].
Format                                   :
Format version                           : Version 4
File size                                : 5.37 GiB
Duration                                 : 41 min 7 s
Overall bit rate mode                    : Variable
Overall bit rate                         : 18.7 Mb/s
Movie name                               : The Expanse | S03E01 | Fight or Flight
Track name/Position                      : 1
Track name/Total                         : 13
Encoded date                             : UTC 2021-01-24 12:35:44
Writing application                      : v52.0.0 ('Secret For The Mad') 64-bit
Writing library                          : libebml v1.4.1 + v1.6.2
IMDB                                     : tt6665296
TMDB                                     : tv/63639
TVDB                                     : 280619

Video
ID                                       : 1
Format                                   : HEVC
Format/Info                              : High Efficiency Video Coding
Format profile                           : Main [email protected]@Main
HDR format                               : SMPTE ST 2094 App 4, Version 0, HDR10 compatible
Codec ID                                 : V_MPEGH/ISO/HEVC
Duration                                 : 41 min 3 s
Bit rate                                 : 14.5 Mb/s
Width                                    : 3 840 pixels
Height                                   : 2 160 pixels
Display aspect ratio                     : 16:9
Frame rate mode                          : Constant
Frame rate                               : 23.976 (24000/1001) FPS
Standard                                 : NTSC
Color space                              : YUV
Chroma subsampling                       : 4:2:0 (Type 2)
Bit depth                                : 10 bits
Bits/(Pixel*Frame)                       : 0.073
Stream size                              : 4.17 GiB (78%)
Default                                  : Yes
Forced                                   : No
Color range                              : Limited
Color primaries                          : BT.2020
Transfer characteristics                 : PQ
Matrix coefficients                      : BT.2020 non-constant
Mastering display color primaries        : Display P3
Mastering display luminance              : min: 0.0001 cd/m2, max: 1000 cd/m2
Maximum Content Light Level              : 1000 cd/m2
Maximum Frame-Average Light Level        : 321 cd/m2

Audio #1
ID                                       : 2
Format                                   : AC-3
Format/Info                              : Audio Coding 3
Commercial name                          : Dolby Digital
Codec ID                                 : A_AC3
Duration                                 : 41 min 4 s
Bit rate mode                            : Constant
Bit rate                                 : 640 kb/s
Channel(s)                               : 6 channels
Channel layout                           : L R C LFE Ls Rs
Sampling rate                            : 48.0 kHz
Frame rate                               : 31.250 FPS (1536 SPF)
Compression mode                         : Lossy
Stream size                              : 188 MiB (3%)
Title                                    : Двоголосий Закадровий AniUA
Language                                 : Ukrainian
Service kind                             : Complete Main
Default                                  : Yes
Forced                                   : No

Audio #2
ID                                       : 3
Format                                   : XLL
Format/Info                              : Digital Theater Systems
Commercial name                          : -HD Master Audio
Codec ID                                 : A_DTS
Duration                                 : 41 min 7 s
Bit rate mode                            : Variable
Bit rate                                 : 3 556 kb/s
Channel(s)                               : 6 channels
Channel layout                           : C L R Ls Rs LFE
Sampling rate                            : 48.0 kHz
Frame rate                               : 93.750 FPS (512 SPF)
Bit depth                                : 24 bits
Compression mode                         : Lossless
Stream size                              : 1.02 GiB (19%)
Title                                    : -HD MA 5.1
Language                                 : English
Default                                  : No
Forced                                   : No

Text
ID                                       : 4
Format                                   : UTF-8
Codec ID                                 : S_TEXT/UTF8
Codec ID/Info                            : UTF-8 Plain Text
Duration                                 : 38 min 56 s
Bit rate                                 : 75 b/s
Count of elements                        : 790
Stream size                              : 21.6 KiB (0%)
Title                                    : English (SDH)
Language                                 : English
Default                                  : No
Forced                                   : No

Menu
00:00:00.000                             : en:1. Studio Logo
00:00:06.000                             : en:2. Opening Credits
00:01:06.000                             : en:3. Formal Declaration
00:04:24.000                             : en:4. The Roci's crew make repairs
00:07:53.000                             : en:5. Bobbie makes a battle plan
00:09:21.000                             : en:6. Contorta
00:10:51.000                             : en:7. Fred reports back to the OPA
00:13:00.000                             : en:8. Errinwright starts turning against Avasarala
00:15:20.000                             : en:9. Naomi tries to talk sense into Amos and Alex
00:18:49.000                             : en:10. The crew distances themselves from Naomi
00:21:13.000                             : en:11. Avasarala's team faces a new threat
00:23:03.000                             : en:12. Tilting at Windmills
00:24:34.000                             : en:13. Avasaral's team prepares to leave
00:25:53.000                             : en:14. Alex calls home
00:29:22.000                             : en:15. Bobbie solves another problem
00:31:51.000                             : en:16. Holden comes clean to Prax
00:33:49.000                             : en:17. Fred tries to apologize
00:36:13.000                             : en:18. You can't take the Razeorback
00:40:07.000                             : en:19. End Credits
Скріншоти




Джерело: &
Особиста оцінка: 8 - мені сподобалося



Авторський реліз (завантажувати можна без реєстрації)
 Трекер:    Зареєстрований   

Завантажити / скачати серіал українською



відео для новачків



 Зареєстрований:   2021-01-25 19:38
 Розмір:   71.25 GB 
 Оцінка серіалу:   9.8/10 (Голосів: 4)
   
Ваш часовий пояс: GMT + 2 Години

Нова тема   Відповісти