МініФорс Нові герої / Miniforce New Heroes Rise (2016) 1080p 2xUkr/Eng

Нові коментарі

Нова тема   Відповісти
Автор Повідомлення
Anonymous 







2021-01-25 17:08  
МініФорс Нові герої / Miniforce New Heroes Rise (2016) 1080p 2xUkr/Eng


Жанр: пригоди, комедія
Країна: Південна Корея



Кінокомпанія: CJ Entertainment
Сюжет:
Пріквел популярного серіалу, що оповідає про створення суперкоманди Мініфорс. Члени команди - чарівні звірятка-пухнастики, але за їх милою зовнішністю ховаються справжні відважні воїни. Доктор Джеремі з лабораторії Мініфорс досліджує «еллініум» - невідома речовина, що містить могутню силу. Зевс, капітан Армії Ящірок, розглядає еллініум з метою створення смертоносної зброї проти людства. Одного разу він атакує лабораторію і викрадає еллініум. Лабораторія Мініфорс скликає суперкоманду - це наші знайомі Вольт, Семмі, Макс і Люсі. До них приєднується Анна, дочка доктора Джеремі. Мініфорс відправляються на боротьбу з Армією Ящірок з метою повернути еллініум. Їм належить безліч випробувань, щоб виконати місію.


Тривалість: 01:07:12
Якість:
Відео:
кодек:
розмір кадру: 1920 х 1080
бітрейт: 2000 кб/с

Аудіо # 1:
мова: українська
озвучення: професійне, багатоголосе закадрове
кодек: 2.0
бітрейт: 192 кб/с

Аудіо # 2:
мова: українська
озвучення: професійне, багатоголосе закадрове
кодек: 2.0
бітрейт: 192 кб/с

Аудіо # 3:
мова: англійська
переклад: оригінал
кодек: 2.0
бітрейт: 128 кб/с
Info
General
Unique ID : 163448071429485963073193145367957339756 (0x7AF6F4195A15387ED28FB22A137FFE6C)
Complete name : D:\Miniforce New Heroes Rise (2016) 1080p [2xUKR_ENG] [Hurtom].
Format :
Format version : Version 4 / Version 2
File size : 1.18 GiB
Duration : 1 h 7 min
Overall bit rate : 2 496 kb/s
Movie name : МініФорс Нові герої / Miniforce New Heroes Rise (2016)
Encoded date : UTC 2021-01-25 15:02:12
Writing application : v51.0.0 ('I Wish') 32-bit
Writing library : libebml v1.4.0 + v1.6.2
Cover : Yes
Attachments : cover.jpg

Video
ID : 1
Format : AVC
Format/Info : Advanced Video Codec
Format profile : [email protected]
Format settings, CABAC : Yes
Format settings, RefFrames : 3 frames
Codec ID : V_MPEG4/ISO/AVC
Duration : 1 h 7 min
Bit rate : 1 981 kb/s
Width : 1 920 pixels
Height : 1 080 pixels
Display aspect ratio : 16:9
Frame rate mode : Constant
Frame rate : 24.000 FPS
Color space : YUV
Chroma subsampling : 4:2:0
Bit depth : 8 bits
Scan type : Progressive
Bits/(Pixel*Frame) : 0.040
Stream size : 960 MiB (79%)
Language : English
Default : Yes
Forced : No
Color range : Limited
Color primaries : BT.709
Transfer characteristics : BT.709
Matrix coefficients : BT.709

Audio #1
ID : 2
Format : AC-3
Format/Info : Audio Coding 3
Format settings, Endianness : Big
Codec ID : A_AC3
Duration : 1 h 7 min
Bit rate mode : Constant
Bit rate : 192 kb/s
Channel(s) : 2 channels
Channel positions : Front: L R
Sampling rate : 48.0 kHz
Frame rate : 31.250 FPS (1536 SPF)
Bit depth : 16 bits
Compression mode : Lossy
Delay relative to video : -125 ms
Stream size : 93.1 MiB (8%)
Title : KIDS HD
Language : Ukrainian
Service kind : Complete Main
Default : Yes
Forced : Yes

Audio #2
ID : 3
Format : AC-3
Format/Info : Audio Coding 3
Format settings, Endianness : Big
Codec ID : A_AC3
Duration : 1 h 7 min
Bit rate mode : Constant
Bit rate : 192 kb/s
Channel(s) : 2 channels
Channel positions : Front: L R
Sampling rate : 48.0 kHz
Frame rate : 31.250 FPS (1536 SPF)
Bit depth : 16 bits
Compression mode : Lossy
Delay relative to video : -125 ms
Stream size : 93.1 MiB (8%)
Title : Піксель
Language : Ukrainian
Service kind : Complete Main
Default : No
Forced : No

Audio #3
ID : 4
Format :
Format/Info : Advanced Audio Codec
Format profile : LC
Codec ID : A_AAC
Duration : 1 h 7 min
Bit rate : 128 kb/s
Channel(s) : 2 channels
Channel positions : Front: L R
Sampling rate : 44.1 kHz
Frame rate : 43.066 FPS (1024 SPF)
Compression mode : Lossy
Stream size : 62.1 MiB (5%)
Title : Original
Language : English
Default : No
Forced : No
Скріншоти
Подяки: за запис з ТБ та синхронізацію доріжки №2 - п. sergiyko.5, за запис з ТБ доріжки №1 п. Sando7
Джерело: &
Особиста оцінка: 0 - не дивився


 Трекер:    Зареєстрований   

Завантажити / скачати мультфільм українською



відео для новачків



 Зареєстрований:   2021-01-25 17:08
 Розмір:   1.18 GB 
 Оцінка мультфільму:   -/10 (Голосів: 0)
   
Інші релізи
Ваш часовий пояс: GMT + 2 Години

Нова тема   Відповісти