Джулія Блу / Julia Blue (2018) 1080p

Нові коментарі

Нова тема   Відповісти
Автор Повідомлення
Anonymous 







2021-01-25 00:37  
Джулія Блу / Julia Blue (2018) 1080p

Джулія Блу / Julia Blue (2018) 1080p


Жанр: драма, мелодрама, воєнний
Країна: Україна, США



Кінокомпанія: KinoRox Productions, LaiLou Productions
Режисер: Роксі Топорович
Актори: Поліна Снісаренко, Дмитро Ярошенко, Дар'я Баріхашвілі, Людмила Шпиталєва, Андрій Май-Малахов, Віталій Салій, Роман Ясіновський, Вікторія Копоть, Євген Ярощук, Сергій Сипливий, Тетяна Захарчин, Ромчик Ульмер, Богдан Ревкевич, Анна Єпатко, Орест Ягиш, Іван Федорів, Ірина Савчин, Мар'яна Ульмер, Михайло Бурядник, Марія Міллер, Роман Бурак, Олександр Кнещук, Іван Демків, Віктор Годинець, Ігор Пранник, Маріон Кун, Руслан Петричка

Сюжет:
Юлія, студентка-фотожурналістка, живе у понівеченій війною Україні. Одного дня вона зустрічає молодого солдата, який щойно повернувся з передової, і закохується. Але почуття стають на заваді власній незалежності і світлому майбутньому.


Тривалість: 01:28:30
Якість:
Відео:
кодек:
розмір кадру: 1920 х 800
бітрейт: 4000 кб/с

Аудіо:
мова: українська, російська
переклад: оригінал
кодек: 2.0
бітрейт: 192 кб/с
Info
Код:
General
Unique ID                                : 417100613729735622329193019175875157 (0x5054A5E22934DD0162383B6DDC3255)
Complete name                            : Julia Blue (2018) 1080p [Ukr] [Hurtom].
Format                                   :
Format version                           : Version 4
File size                                : 2.59 GiB
Duration                                 : 1 h 28 min
Overall bit rate                         : 4 185 kb/s
Movie name                               : Джулія Блу (2018)
Encoded date                             : UTC 2021-01-24 22:22:08
Writing application                      : v52.0.0 ('Secret For The Mad') 64-bit
Writing library                          : libebml v1.4.1 + v1.6.2
Cover                                    : Yes
Attachments                              : cover.jpg

Video
ID                                       : 1
Format                                   : AVC
Format/Info                              : Advanced Video Codec
Format profile                           : [email protected]
Format settings                          : CABAC / 4 Ref Frames
Format settings, CABAC                   : Yes
Format settings, Reference frames        : 4 frames
Codec ID                                 : V_MPEG4/ISO/AVC
Duration                                 : 1 h 28 min
Bit rate                                 : 4 000 kb/s
Width                                    : 1 920 pixels
Height                                   : 800 pixels
Display aspect ratio                     : 2.40:1
Frame rate mode                          : Constant
Frame rate                               : 24.000 FPS
Color space                              : YUV
Chroma subsampling                       : 4:2:0
Bit depth                                : 8 bits
Scan type                                : Progressive
Bits/(Pixel*Frame)                       : 0.109
Stream size                              : 2.47 GiB (95%)
Writing library                          : core 155 r2917 0a84d98
Encoding settings                        : cabac=1 / ref=3 / deblock=1:0:0 / analyse=0x3:0x113 / me=hex / subme=7 / psy=1 / psy_rd=1.00:0.00 / mixed_ref=1 / me_range=16 / chroma_me=1 / trellis=1 / 8x8dct=1 / cqm=0 / deadzone=21,11 / fast_pskip=1 / chroma_qp_offset=-2 / threads=12 / lookahead_threads=2 / sliced_threads=0 / nr=0 / decimate=1 / interlaced=0 / bluray_compat=0 / constrained_intra=0 / bframes=3 / b_pyramid=2 / b_adapt=1 / b_bias=0 / direct=1 / weightb=1 / open_gop=0 / weightp=2 / keyint=72 / keyint_min=24 / scenecut=40 / intra_refresh=0 / rc=2pass / mbtree=0 / bitrate=4000 / ratetol=1.0 / qcomp=0.60 / qpmin=0 / qpmax=69 / qpstep=4 / cplxblur=20.0 / qblur=0.5 / ip_ratio=1.40 / pb_ratio=1.30 / aq=1:1.00
Language                                 : Ukrainian
Default                                  : Yes
Forced                                   : No

Audio
ID                                       : 2
Format                                   : LC
Format/Info                              : Advanced Audio Codec Low Complexity
Codec ID                                 : A_AAC-2
Duration                                 : 1 h 28 min
Bit rate                                 : 192 kb/s
Channel(s)                               : 2 channels
Channel layout                           : L R
Sampling rate                            : 48.0 kHz
Frame rate                               : 46.875 FPS (1024 SPF)
Compression mode                         : Lossy
Stream size                              : 122 MiB (5%)
Language                                 : Ukrainian
Default                                  : Yes
Forced                                   : No

Скріншоти





Джерело:


Золотий реліз (завантажене не впливає на рейтинг)
 Трекер:    Зареєстрований   

Завантажити / скачати український фільм



відео для новачків



 Зареєстрований:   2021-01-25 00:37
 Розмір:   2.59 GB 
 Оцінка фільму:   8.9/10 (Голосів: 17)
   
Інші релізи
   Джулія Блу / Julia Blue (2018) AVC igor911  7 / 0   1.32 GB   2021-02-27 00:11 
601сан 
VIP


З нами з: 22.05.12
Востаннє: 05.03.21
Повідомлень: 353

2021-01-26 21:57  
Ще раз передивлятися не буду. Депресії мені і в житті вистачає.
q-ball 
Свій


З нами з: 25.10.20
Востаннє: 04.03.21
Повідомлень: 59

2021-02-22 15:11  
Більше драма чи мелодрама?
601сан 
VIP


З нами з: 22.05.12
Востаннє: 05.03.21
Повідомлень: 353

2021-02-23 15:01  
q-ball
Швидше депресняк.

q-ball 
Свій


З нами з: 25.10.20
Востаннє: 04.03.21
Повідомлень: 59

2021-02-23 15:23  
601сан
Та зараз усе, що не комедія, то депресняк.

антиватнік 
Частий відвідувач


З нами з: 17.08.15
Востаннє: 05.03.21
Повідомлень: 39

2021-02-23 21:44  
свинособача присутня у фільмі?
601сан 
VIP


З нами з: 22.05.12
Востаннє: 05.03.21
Повідомлень: 353

2021-02-23 22:16  
антиватнік
Аякже.

andriy_nv 
VIP


З нами з: 27.06.08
Востаннє: 05.03.21
Повідомлень: 1132

2021-02-25 18:32  
сюжет такий собі
на один раз... любителям драм

Ваш часовий пояс: GMT + 2 Години

Нова тема   Відповісти