[збір коштів] Гострі Картузи (Сезон 5, Серія 1) / Peaky Blinders (Season 5, Episode 1) (2019) 1080p Ukr/Eng

Нові коментарі

Нова тема   Відповісти
Автор Повідомлення
Цікава ідея 
VIP


З нами з: 25.12.11
Востаннє: 04.03.21
Повідомлень: 821

2021-01-24 22:18  
AVC | 1080p

[збір коштів] Гострі Картузи (Сезон 5, Серія 1) / Peaky Blinders (Season 5, Episode 1) (2019) 1080p Ukr/Eng


[збір коштів] Гострі Картузи (Сезон 5, Серія 1) / Peaky Blinders (Season 5, Episode 1) (2019) 1080p Ukr/Eng


На озвучення серіалу проходить ЗБІР КОШТІВ


Жанр: драма, історичний, кримінальний, бойовик
Країна: Велика Британія



Кінокомпанія / телеканал: BBC
Режисери: Колм Маккарті, Тім Мілантс, Отто Баферст, Том Гарпер
Актори: Кілліан Мерфі, Сем Нілл, Гелен Маккрорі та інші.

Сюжет:
У п'ятому сезоні продовження гангстерської сімейної саги розгортаються на тлі фінансової кризи 1929 року.


Перекладено та озвучено ТО "Цікава Ідея"


Тривалість: 1 серія: ~ 60 хв. (цілком серій: 1/6)
Перелік серій:

01. Black Tuesday
02. Black Cats
03. Strategy
04. The Loop
05. The Shock
06. Mr. Jones
Якість: 1080p
Відео:
кодек:
розмір кадру: 1920 x 960
бітрейт: ~ 9000 кб/с

Аудіо # 1:
мова: українська | "Цікава Ідея"
переклад: професійний багатоголосий закадровий
кодек: 5.1
бітрейт: 448 кб/с

Аудіо # 2:
мова: англійська
переклад: оригінал
кодек: 5.1
бітрейт: 1509 кб/с
Info
Код:
Format                                   :
Format version                           : Version 4
File size                                : 4.55 GiB
Duration                                 : 56 min 38 s
Overall bit rate                         : 11.5 Mb/s
Movie name                               : Гострі картузи / Peaky Blinders - S05E01 (2019) 1080p [Ukr.Eng] [Цікава Ідея]
Encoded date                             : UTC 2021-02-11 12:14:56
Writing application                      : v50.0.0 ('Awakenings') 64-bit
Writing library                          : libebml v1.4.0 + v1.6.2
Cover                                    : Yes
Attachments                              : cover.jpg

Video
ID                                       : 1
Format                                   : AVC
Format/Info                              : Advanced Video Codec
Format profile                           : [email protected]
Format settings                          : CABAC / 4 Ref Frames
Format settings, CABAC                   : Yes
Format settings, Reference frames        : 4 frames
Codec ID                                 : V_MPEG4/ISO/AVC
Duration                                 : 56 min 38 s
Bit rate                                 : 9 535 kb/s
Width                                    : 1 920 pixels
Height                                   : 960 pixels
Display aspect ratio                     : 2.000
Frame rate mode                          : Constant
Frame rate                               : 25.000 FPS
Color space                              : YUV
Chroma subsampling                       : 4:2:0
Bit depth                                : 8 bits
Scan type                                : Progressive
Bits/(Pixel*Frame)                       : 0.207
Stream size                              : 3.77 GiB (83%)
Writing library                          : core 158 r2984 3759fcb
Encoding settings                        : cabac=1 / ref=4 / deblock=1:-3:-3 / analyse=0x3:0x113 / me=umh / subme=8 / psy=1 / psy_rd=1.00:0.00 / mixed_ref=1 / me_range=32 / chroma_me=1 / trellis=2 / 8x8dct=1 / cqm=0 / deadzone=21,11 / fast_pskip=1 / chroma_qp_offset=-2 / threads=24 / lookahead_threads=4 / sliced_threads=0 / nr=0 / decimate=1 / interlaced=0 / bluray_compat=0 / constrained_intra=0 / bframes=3 / b_pyramid=2 / b_adapt=2 / b_bias=0 / direct=3 / weightb=1 / open_gop=0 / weightp=2 / keyint=250 / keyint_min=25 / scenecut=40 / intra_refresh=0 / rc_lookahead=50 / rc=2pass / mbtree=1 / bitrate=9535 / ratetol=1.0 / qcomp=0.60 / qpmin=0 / qpmax=69 / qpstep=4 / cplxblur=20.0 / qblur=0.5 / ip_ratio=1.40 / aq=3:0.80
Default                                  : Yes
Forced                                   : No

Audio #1
ID                                       : 2
Format                                   : AC-3
Format/Info                              : Audio Coding 3
Commercial name                          : Dolby Digital
Codec ID                                 : A_AC3
Duration                                 : 56 min 38 s
Bit rate mode                            : Constant
Bit rate                                 : 448 kb/s
Channel(s)                               : 6 channels
Channel layout                           : L R C LFE Ls Rs
Sampling rate                            : 48.0 kHz
Frame rate                               : 31.250 FPS (1536 SPF)
Compression mode                         : Lossy
Stream size                              : 181 MiB (4%)
Title                                    : Цікава Ідея
Language                                 : Ukrainian
Service kind                             : Complete Main
Default                                  : Yes
Forced                                   : Yes

Audio #2
ID                                       : 3
Format                                   :
Format/Info                              : Digital Theater Systems
Codec ID                                 : A_DTS
Duration                                 : 56 min 37 s
Bit rate mode                            : Constant
Bit rate                                 : 1 509 kb/s
Channel(s)                               : 6 channels
Channel layout                           : C L R Ls Rs LFE
Sampling rate                            : 48.0 kHz
Frame rate                               : 93.750 FPS (512 SPF)
Bit depth                                : 24 bits
Compression mode                         : Lossy
Stream size                              : 611 MiB (13%)
Title                                    : Original
Language                                 : English
Default                                  : No
Forced                                   : No
Скріншоти



Перекладено та озвучено творчим об'єднанням:
Переклад: Федір Сидорук.



Авторський реліз (завантажувати можна без реєстрації)
 Трекер:    Зареєстрований   

Завантажити / скачати серіал українською



відео для новачків



 Зареєстрований:   2021-02-12 13:01
 Розмір:   4.55 GB 
 Оцінка серіалу:   10/10 (Голосів: 1)
   
bot 
робот


З нами з: 30.09.07
Востаннє: 26.05.05
Повідомлень: 27309

2021-02-12 13:00  
Тему перенесено з Анонси релізів до форуму Серіали в HD


Цікава ідея

Ваш часовий пояс: GMT + 2 Години

Нова тема   Відповісти