Міф (2018) 1080p

Нові коментарі

Нова тема   Відповісти
Автор Повідомлення
Anonymous 







2021-01-24 21:15  
Міф (2018) 1080p

Міф (2018) 1080p


Жанр: документальний, біографічний
Країна: Україна

Кінокомпанія: NGO «Tribu Verde», Державне агентство України з питань кіно, Міжнародний продюсерський центр «Фор-Пост»
Режисер: Леонід Кантер, Іван Ясній
Актори: Надія Мигаль, Олександр Козаренко, Стефанія Павлишин, Іван Юзюк, Марія Байко, Юрій Шевчук, Орест Сліпак, Гійом Думанж, Гоша Ковалінська, Євген Гальперін, Єлизавета Слюсарєва, Елен Руд'є де Лара та ін.

Сюжет:
Історія життя Василя Сліпака – оперного співака зі світовим ім’ям та унікальним голосом та учасника війни на Донбасі.

Василь народився у Львові, але згодом в пошуках музичної реалізації, маючи унікальний голос – контратенор, переїхав до Франції. Там він прожив 19 років і знайшов усе, що ми звикли називати «щастям»: ім’я, успішну кар’єру на світових оперних сценах, вірних друзів і кохання. Він брав активну участь у Революції Гідності, очоливши демонстрації у Франції, а згодом долучився й до волонтерського руху, допомагаючи Україні. Здавалося б, робив більш ніж достатньо, як для людини мистецтва. Але Василь вирішив залишити сцену та кар’єру в Європі й стати до лав добровольців, коли в його рідну країну прийшла війна. Під час виконання бойової задачі Василь «Міф» Сліпак загинув від кулі снайпера.


Тривалість: 01:02:38
Якість:
Відео:
кодек:
розмір кадру: 1920 х 1080
бітрейт: 3993 кб/с

Аудіо:
мова: українська
переклад: оригінал
кодек: 2.0
бітрейт: 192 кб/с
Info
Код:
General
Unique ID                                : 104658970675795081403060844521000509506 (0x4EBC95A58C8589464B22608622CFA042)
Complete name                            : Міф (2018) 1080p [Ukr] [Hurtom].
Format                                   :
Format version                           : Version 4
File size                                : 1.83 GiB
Duration                                 : 1 h 2 min
Overall bit rate                         : 4 187 kb/s
Movie name                               : Міф (2018)
Encoded date                             : UTC 2021-01-24 18:17:21
Writing application                      : v52.0.0 ('Secret For The Mad') 64-bit
Writing library                          : libebml v1.4.1 + v1.6.2
Cover                                    : Yes
Attachments                              : cover.jpg

Video
ID                                       : 1
Format                                   : AVC
Format/Info                              : Advanced Video Codec
Format profile                           : [email protected]
Format settings                          : CABAC / 3 Ref Frames
Format settings, CABAC                   : Yes
Format settings, Reference frames        : 3 frames
Codec ID                                 : V_MPEG4/ISO/AVC
Duration                                 : 1 h 2 min
Bit rate                                 : 3 993 kb/s
Width                                    : 1 920 pixels
Height                                   : 1 080 pixels
Display aspect ratio                     : 16:9
Frame rate mode                          : Constant
Frame rate                               : 25.000 FPS
Color space                              : YUV
Chroma subsampling                       : 4:2:0
Bit depth                                : 8 bits
Scan type                                : Progressive
Bits/(Pixel*Frame)                       : 0.077
Stream size                              : 1.75 GiB (95%)
Language                                 : Ukrainian
Default                                  : Yes
Forced                                   : No

Audio
ID                                       : 2
Format                                   : LC
Format/Info                              : Advanced Audio Codec Low Complexity
Codec ID                                 : A_AAC-2
Duration                                 : 1 h 2 min
Bit rate                                 : 192 kb/s
Channel(s)                               : 2 channels
Channel layout                           : L R
Sampling rate                            : 48.0 kHz
Frame rate                               : 46.875 FPS (1024 SPF)
Compression mode                         : Lossy
Stream size                              : 86.0 MiB (5%)
Language                                 : Ukrainian
Default                                  : Yes
Forced                                   : No

Скріншоти





Джерело:


Золотий реліз (завантажене не впливає на рейтинг)
 Трекер:    Зареєстрований   

Завантажити / скачати фільм українською



відео для новачків



 Зареєстрований:   2021-01-24 21:15
 Розмір:   1.83 GB 
 Оцінка фільму:   10/10 (Голосів: 39)
   
pavelnb 
Новенький


З нами з: 09.02.18
Востаннє: 26.02.21
Повідомлень: 9

2021-01-26 20:44  
як кіно?
Малдер 
Свій


З нами з: 19.08.08
Востаннє: 07.03.21
Повідомлень: 71

2021-01-26 21:56  
pavelnb

Як кіно? Звичайний документальний фільм, мікс спогадів про Василя його викладачів, колег по сцені, рідних, бойових побратимів і кадрів, які показують живого Василя Сліпака на сцені, у житті, на передовій... У свій час ходив на цей фільм в кінотеатр.

людакака 
Новенький


З нами з: 11.01.13
Востаннє: 06.03.21
Повідомлень: 1

2021-01-27 18:39  
я ходив в коридор плакати
флеш 
Новенький


З нами з: 03.07.17
Востаннє: 06.03.21
Повідомлень: 1

2021-01-28 13:20  
Вартий перегляду...
wuzicka 
Свій


З нами з: 08.03.10
Востаннє: 07.03.21
Повідомлень: 104

2021-01-28 22:52  
дуже дякую...
хотів сходити на нього в кіно, але якось не склалося...
тепер буде можливість подивитисяю

v7mishin 
Новенький


З нами з: 03.09.15
Востаннє: 06.03.21
Повідомлень: 6

2021-02-07 13:01  
Дуже боляче буде дивитися
Ігор Хітовський 
Частий відвідувач


З нами з: 04.02.20
Востаннє: 06.03.21
Повідомлень: 31

2021-02-08 13:22  
Вбиває у фільмі позиція його колишнього викладача наприкінці: "Заради чого він загинув?". І це у Львові, нашому т.зв. П'ємонті. Був у 2019 у Львові на Личаківському, шукав його могилу, так екскурсовод, який обслуговував якихось поляків на запитання, де його могила, відповів: "А хіба він тут похований?"...(
Ваш часовий пояс: GMT + 2 Години

Нова тема   Відповісти