Мослі / Mosley (2019) 720p Ukr/Eng

Нові коментарі

Нова тема   Відповісти
Автор Повідомлення
Anonymous 







2021-01-24 17:48  
Мослі / Mosley (2019) 720p Ukr/Eng

Мослі / Mosley (2019) 720p Ukr/Eng


Жанр: анімація, пригоди, сімейний
Країна: Китай, Нова Зеландія



Кінокомпанія: Huhu Studios
Режисер: Кірбі Аткінс
Актори: Кірбі Аткінс, Люсі Лоулесс, Різ Дербі, Джон Ріс-Девіс , Маркус Крістенсен та ініші.

Сюжет:
Мослі – один із істот, про яких Ви, напевно, ніколи й не чули. Їх називають тріфанти. Вони дуже милі, сильні та працьовиті. Скільки Мослі себе пам'ятає, ці істоти завжди були на службі в людей, як би важко їм не було. Кожен день він приходить додому та просто валиться з ніг від утоми. А вдома ж його чекає синочок Ру. Колись і він буде працювати на людей... А що якщо їх предки зовсім не були рабами? Ру випадково знайшов печеру, де на стінах намальовані тріфанти, що стоять на двох ногах, та ще й із руками! Невже весь цей час Мослі із сином жили в обманному світі? Потрібно зробити все можливе, щоб дізнатися правду про тріфантів. Настав час для цього.


Тривалість: 01:36:45
Якість: 720p
Відео:
кодек:
розмір кадру: 1280x532
бітрейт: 3000 кб/с

Аудіо # 1:
мова: українська
переклад: професійний дубльований
кодек: 5.1
бітрейт: 384 кб/с

Аудіо # 2:
мова: англійська
переклад: оригінал
кодек: 5.1
бітрейт: 384 кб/с
Info
General
Complete name : Mosley (2019) 720p [ukr, eng] [Hurtom].
Format :
Format version : Version 4
File size : 2.55 GiB
Duration : 1 h 36 min
Overall bit rate : 3 771 kb/s
Movie name : Мослі / Mosley (2019)
Encoded date : UTC 2021-01-24 15:31:49
Writing application : v30.1.0 ('Forever And More') 64-bit
Writing library : libebml v1.3.6 + v1.4.9
Cover : Yes
Attachments : cover.jpg

Video
ID : 1
Format : AVC
Format/Info : Advanced Video Codec
Format profile : [email protected]
Format settings : CABAC / 4 Ref Frames
Format settings, CABAC : Yes
Format settings, RefFrames : 4 frames
Codec ID : V_MPEG4/ISO/AVC
Duration : 1 h 36 min
Bit rate : 3 000 kb/s
Width : 1 280 pixels
Height : 532 pixels
Display aspect ratio : 2.40:1
Frame rate mode : Constant
Frame rate : 24.000 FPS
Color space : YUV
Chroma subsampling : 4:2:0
Bit depth : 8 bits
Scan type : Progressive
Bits/(Pixel*Frame) : 0.184
Stream size : 2.03 GiB (80%)
Writing library : core 157 r2935 545de2f
Encoding settings : cabac=1 / ref=2 / deblock=1:0:0 / analyse=0x3:0x113 / me=hex / subme=6 / psy=1 / psy_rd=1.00:0.00 / mixed_ref=1 / me_range=16 / chroma_me=1 / trellis=1 / 8x8dct=1 / cqm=0 / deadzone=21,11 / fast_pskip=1 / chroma_qp_offset=-2 / threads=12 / lookahead_threads=2 / sliced_threads=0 / nr=0 / decimate=1 / interlaced=0 / bluray_compat=0 / constrained_intra=0 / bframes=3 / b_pyramid=2 / b_adapt=1 / b_bias=0 / direct=1 / weightb=1 / open_gop=0 / weightp=1 / keyint=240 / keyint_min=24 / scenecut=40 / intra_refresh=0 / rc_lookahead=30 / rc=2pass / mbtree=1 / bitrate=3000 / ratetol=1.0 / qcomp=0.60 / qpmin=0 / qpmax=69 / qpstep=4 / cplxblur=20.0 / qblur=0.5 / vbv_maxrate=62500 / vbv_bufsize=78125 / nal_hrd=none / filler=0 / ip_ratio=1.40 / aq=1:1.00
Language : English
Default : Yes
Forced : No
Color range : Limited
Color primaries : BT.709
Transfer characteristics : BT.709
Matrix coefficients : BT.709

Audio #1
ID : 2
Format : AC-3
Format/Info : Audio Coding 3
Commercial name : Dolby Digital
Codec ID : A_AC3
Duration : 1 h 36 min
Bit rate mode : Constant
Bit rate : 384 kb/s
Channel(s) : 6 channels
Channel layout : L R C LFE Ls Rs
Sampling rate : 48.0 kHz
Frame rate : 31.250 FPS (1536 SPF)
Bit depth : 16 bits
Compression mode : Lossy
Delay relative to video : -41 ms
Stream size : 266 MiB (10%)
Title : 5.1 | 384
Language : Ukrainian
Service kind : Complete Main
Default : Yes
Forced : No

Audio #2
ID : 3
Format : AC-3
Format/Info : Audio Coding 3
Commercial name : Dolby Digital
Codec ID : A_AC3
Duration : 1 h 36 min
Bit rate mode : Constant
Bit rate : 384 kb/s
Channel(s) : 6 channels
Channel layout : L R C LFE Ls Rs
Sampling rate : 48.0 kHz
Frame rate : 31.250 FPS (1536 SPF)
Bit depth : 16 bits
Compression mode : Lossy
Delay relative to video : -41 ms
Stream size : 266 MiB (10%)
Title : 5.1 | 384
Language : English
Service kind : Complete Main
Default : No
Forced : No

Menu
00:00:00.000 : en:Chapter 1
00:07:54.000 : en:Chapter 2
00:18:00.917 : en:Chapter 3
00:25:51.708 : en:Chapter 4
00:34:41.542 : en:Chapter 5
00:43:13.958 : en:Chapter 6
00:52:43.667 : en:Chapter 7
01:01:10.042 : en:Chapter 8
01:09:33.833 : en:Chapter 9
01:18:09.500 : en:Chapter 10
01:25:09.042 : en:Chapter 11
01:31:26.000 : en:Chapter 12
Скріншоти


Джерело:
Особиста оцінка: 8 - мені сподобалося


 Трекер:    Зареєстрований   

Завантажити / скачати мультфільм українською



відео для новачків



 Зареєстрований:   2021-01-24 17:48
 Розмір:   2.55 GB 
 Оцінка мультфільму:   10/10 (Голосів: 4)
   
Інші релізи
   Мослі / Mosley (2019) AVC Ukr/Eng 11FrYkT  15 / 0   1.92 GB   2021-01-25 18:00 
   Мослі / Mosley (2019) 1080p Ukr/Eng Neo_Men  50 / 0   3.46 GB   2020-04-12 17:24 
   Мослі / Mosley (2019) Jatx_11  23 / 0   1.33 GB   2020-04-12 13:29 
-Star-Lord- 
VIP


З нами з: 09.08.18
Востаннє: 02.03.21
Повідомлень: 2422

2021-01-24 20:17  
wuzicka 
Свій


З нами з: 08.03.10
Востаннє: 01.03.21
Повідомлень: 104

2021-02-02 15:14  
хтось дивився?
Ваш часовий пояс: GMT + 2 Години

Нова тема   Відповісти