Гуцулка Ксеня (2019) 1080p

Нові коментарі

Нова тема   Відповісти
Автор Повідомлення
Anonymous 







2021-01-24 03:00  
Гуцулка Ксеня (2019) 1080p

Гуцулка Ксеня (2019) 1080p


Жанр: комедія, мюзикл, романтичний
Країна: Україна



Кінокомпанія: Гагарін Медіа
Режисер: Олена Дем'яненко
Актори: Варвара Лущик, Макс Лозинський, Олег Стефан, Iгор Цiшкевич, Катерина Молчанова, Олів'є Бонжюр, Юрій Радковський, Тетяна Печенкіна, Віталій Ажнов, Вікторія Янчук

Сюжет:
Старий мільйонер Микола Данилюк (американець українського походження) розуміє, що йому залишилося зовсім небагато. Він написав заповіт: один мільйон доларів піде його сину Ярославу (або просто Яро), якщо той одружиться на свідомій українці. Із цією місією хлопець вирішив дістатися до далекої країни, щоб виконати умову батька. Такі гроші не можуть пропасти! Найкраще місце для цього, звичайно ж, Карпати. Яро зупинив свій вибір на Ворохті. Ох, тут у молодого хлопця очі точно будуть розбігатися – усюди справжні українки, чистіше нікуди. Але серед них треба вибрати одну найбільш свідому. Можливо, під час цих пошуків у Яро щось перевернеться в голові й він змінить свій світогляд.


Тривалість: 01:31:11
Якість:
Відео:
кодек:
розмір кадру: 1920 х 1080
бітрейт: 4465 кб/с

Аудіо:
мова: українська
переклад: оригінал
кодек: 5.1
бітрейт: 256 кб/с
Info
Код:
General
Unique ID                                : 9908349999671308025894724098916546034 (0x774475F3325E77550910456A02AF5F2)
Complete name                            : Гуцулка Ксеня (2019) 1080p [Ukr][Hurtom].
Format                                   :
Format version                           : Version 4
File size                                : 3.01 GiB
Duration                                 : 1 h 31 min
Overall bit rate mode                    : Variable
Overall bit rate                         : 4 724 kb/s
Movie name                               : Гуцулка Ксеня (2019)
Encoded date                             : UTC 2021-01-24 00:37:41
Writing application                      : v52.0.0 ('Secret For The Mad') 64-bit
Writing library                          : libebml v1.4.1 + v1.6.2
Cover                                    : Yes
Attachments                              : cover.jpg

Video
ID                                       : 1
Format                                   : AVC
Format/Info                              : Advanced Video Codec
Format profile                           : [email protected]
Format settings                          : CABAC / 1 Ref Frames
Format settings, CABAC                   : Yes
Format settings, Reference frames        : 1 frame
Codec ID                                 : V_MPEG4/ISO/AVC
Duration                                 : 1 h 31 min
Bit rate mode                            : Variable
Bit rate                                 : 4 465 kb/s
Maximum bit rate                         : 13.5 Mb/s
Width                                    : 1 920 pixels
Height                                   : 1 080 pixels
Display aspect ratio                     : 16:9
Frame rate mode                          : Constant
Frame rate                               : 29.970 (30000/1001) FPS
Color space                              : YUV
Chroma subsampling                       : 4:2:0
Bit depth                                : 8 bits
Scan type                                : Progressive
Bits/(Pixel*Frame)                       : 0.072
Stream size                              : 2.84 GiB (95%)
Language                                 : Ukrainian
Default                                  : Yes
Forced                                   : No

Audio
ID                                       : 2
Format                                   : LC
Format/Info                              : Advanced Audio Codec Low Complexity
Codec ID                                 : A_AAC-2
Duration                                 : 1 h 31 min
Bit rate                                 : 256 kb/s
Channel(s)                               : 6 channels
Channel layout                           : C L R Ls Rs LFE
Sampling rate                            : 44.1 kHz
Frame rate                               : 43.066 FPS (1024 SPF)
Compression mode                         : Lossy
Stream size                              : 167 MiB (5%)
Language                                 : Ukrainian
Default                                  : Yes
Forced                                   : No

Скріншоти







Джерело:


Золотий реліз (завантажене не впливає на рейтинг)
 Трекер:    Зареєстрований   

Завантажити / скачати український фільм



відео для новачків



 Зареєстрований:   2021-01-24 03:00
 Розмір:   3.01 GB 
 Оцінка фільму:   9.8/10 (Голосів: 16)
   
roalad 
VIP


З нами з: 22.06.12
Востаннє: 28.02.21
Повідомлень: 420

2021-01-24 09:49  
Чому цей реліз не в смітнику?
Volovik 
VIP


З нами з: 21.02.10
Востаннє: 01.03.21
Повідомлень: 456

2021-01-24 11:31  
roalad
інша якість

perepadia 
VIP


З нами з: 27.10.08
Востаннє: 28.02.21
Повідомлень: 312

2021-01-24 13:44  
Дуже стильно!
Треба якось передивитися.

601сан 
VIP


З нами з: 22.05.12
Востаннє: 01.03.21
Повідомлень: 351

2021-01-24 14:06  
Дивився і пожалкував.Від тих пісень ледь голова не трісла.
Багато пісень мало дій.

upiterian 
Свій


З нами з: 07.04.08
Востаннє: 28.02.21
Повідомлень: 97

2021-01-24 16:22  
Знято естетично, гарно, автентично. Приємний фільм з чудовою музикою Dakh Daughters та ДахаБраха.
eugene_ramone 
Частий відвідувач


З нами з: 24.02.14
Востаннє: 25.02.21
Повідомлень: 35

2021-01-28 05:36  
Нарешті ! Тепер можна і в колекцію. Дуже вдячний.
wuzicka 
Свій


З нами з: 08.03.10
Востаннє: 01.03.21
Повідомлень: 104

2021-01-28 22:56  
601сан
а мені якраз і зайшли пісні

олеся77 
Новенький


З нами з: 28.02.21
Востаннє: 28.02.21
Повідомлень: 1

2021-02-28 17:08  
На жаль звук дуже тихий - дивитися не можливо(
Ваш часовий пояс: GMT + 2 Години

Нова тема   Відповісти