[збір коштів] Вокер (Сезон 1, Серія 1-5) / Walker (Season 1, Episode 1-5) (2021) 1080p Ukr/Eng

Нові коментарі

Нова тема   Відповісти
Автор Повідомлення
Цікава ідея 
VIP


З нами з: 25.12.11
Востаннє: 06.03.21
Повідомлень: 823

2021-01-23 18:13  
AVC | 1080p

[збір коштів]Вокер (Сезон 1, Серія 1-5) / Walker (Season 1, Episode 1-5) (2021) 1080p Ukr/Eng


[збір коштів] Вокер (Сезон 1, Серія 1-5) / Walker (Season 1, Episode 1-5) (2021) 1080p Ukr/Eng


На озвучення серіалу проходить ЗБІР КОШТІВ


Жанр: бойовик, драма, кримінальний, вестерн
Країна: США



Режисери: Стів Робін, Джессіка Ю, Рендолл Зіск
Актори: Джаред Падалекі, Ліндсі Морган, Кіген Аллен, Одетт Еннейбл, Кобі Белл та інші

Сюжет:
Рімейк культового серіалу, який зробив Чака Норріса зіркою. Вокер - офіцер поліції, який два роки працював під прикриттям. Разом з двома дітьми він повертається в рідний Остін, штат Техас, де розуміє, що його робота не закінчена. За підтримки нового напарника, єдиної жінки-рейнджера, він починає боротьбу зі злочинністю.


Перекладено та озвучено ТО "Цікава Ідея"
Український трейлер в нашому озвученні:

Тривалість: 1 серія: ~ 43 хв. (цілком серій: 5/18)
Перелік серій:

01. Pilot
02. Back in the Saddle
03. Bobble Head
04. Don't Fence Me In
05. Duke
Якість: 1080p
Відео:
кодек:
розмір кадру: 1920 x 1080
бітрейт: ~ 9000 кб/с

Аудіо # 1:
мова: українська | "Цікава Ідея"
переклад: професійний багатоголосий закадровий
кодек: 5.1
бітрейт: 448 кб/с

Аудіо # 2:
мова: англійська
переклад: оригінал
кодек: E- 5.1
бітрейт: 640 кб/с
Info
Код:
Format                                   :
Format version                           : Version 4
File size                                : 2.95 GiB
Duration                                 : 42 min 29 s
Overall bit rate mode                    : Constant
Overall bit rate                         : 9 942 kb/s
Movie name                               : Вокер / Walker - S01E01 (2021) 1080p [Ukr.Eng] [Цікава Ідея]
Encoded date                             : UTC 2021-01-23 15:49:25
Writing application                      : v50.0.0 ('Awakenings') 64-bit
Writing library                          : libebml v1.4.0 + v1.6.2
Attachments                              : walker.jpg

Video
ID                                       : 1
Format                                   : AVC
Format/Info                              : Advanced Video Codec
Format profile                           : [email protected]
Format settings                          : CABAC / 4 Ref Frames
Format settings, CABAC                   : Yes
Format settings, Reference frames        : 4 frames
Codec ID                                 : V_MPEG4/ISO/AVC
Duration                                 : 42 min 29 s
Bit rate mode                            : Constant
Bit rate                                 : 8 851 kb/s
Nominal bit rate                         : 10 000 kb/s
Width                                    : 1 920 pixels
Height                                   : 1 080 pixels
Display aspect ratio                     : 16:9
Frame rate mode                          : Constant
Frame rate                               : 23.976 (24000/1001) FPS
Color space                              : YUV
Chroma subsampling                       : 4:2:0
Bit depth                                : 8 bits
Scan type                                : Progressive
Bits/(Pixel*Frame)                       : 0.178
Stream size                              : 2.63 GiB (89%)
Default                                  : Yes
Forced                                   : No
Color range                              : Limited
Color primaries                          : BT.709
Transfer characteristics                 : BT.709
Matrix coefficients                      : BT.709

Audio #1
ID                                       : 2
Format                                   : AC-3
Format/Info                              : Audio Coding 3
Commercial name                          : Dolby Digital
Codec ID                                 : A_AC3
Duration                                 : 42 min 29 s
Bit rate mode                            : Constant
Bit rate                                 : 448 kb/s
Channel(s)                               : 6 channels
Channel layout                           : L R C LFE Ls Rs
Sampling rate                            : 48.0 kHz
Frame rate                               : 31.250 FPS (1536 SPF)
Compression mode                         : Lossy
Stream size                              : 136 MiB (5%)
Title                                    : Цікава Ідея
Language                                 : Ukrainian
Service kind                             : Complete Main
Default                                  : Yes
Forced                                   : Yes

Audio #2
ID                                       : 3
Format                                   : E-AC-3
Format/Info                              : Enhanced AC-3
Commercial name                          : Dolby Digital Plus
Codec ID                                 : A_EAC3
Duration                                 : 42 min 29 s
Bit rate mode                            : Constant
Bit rate                                 : 640 kb/s
Channel(s)                               : 6 channels
Channel layout                           : L R C LFE Ls Rs
Sampling rate                            : 48.0 kHz
Frame rate                               : 31.250 FPS (1536 SPF)
Compression mode                         : Lossy
Stream size                              : 194 MiB (6%)
Title                                    : Original
Language                                 : English
Service kind                             : Complete Main
Default                                  : No
Forced                                   : No
Скріншоти



Перекладено та озвучено творчим об'єднанням:


Авторський реліз (завантажувати можна без реєстрації)
 Трекер:    Зареєстрований   

Завантажити / скачати серіал українською



відео для новачків



 Зареєстрований:   2021-02-20 19:11
 Розмір:   14.59 GB 
 Оцінка серіалу:   8.7/10 (Голосів: 10)
   
Roman7Fedorak 
Поважний учасник


З нами з: 30.03.12
Востаннє: 05.03.21
Повідомлень: 162

2021-01-23 18:56  
Шляпа з геями і чорними , але мушу дивитись Sad (1)
tilda4334 
Відео Гуртом - фільмокрай
Відео Гуртом - фільмокрай


З нами з: 15.08.14
Востаннє: 05.03.21
Повідомлень: 1435

2021-01-23 18:58  
Roman7Fedorak написано:
Шляпа з геями і чорними , але мушу дивитись

Позаду вас стоїть чорний ґей з автоматом і змушує дивитись?

ExorcistZp 
VIP


З нами з: 23.09.14
Востаннє: 06.03.21
Повідомлень: 431

2021-01-25 21:08  
tilda4334 написано:
Позаду вас стоїть чорний ґей з автоматом і змушує дивитись?


Wide grin Wide grin Wide grin Цей коментар зробив мій вечір, дякую.

kkostiki 
Свій


З нами з: 06.09.10
Востаннє: 05.03.21
Повідомлень: 58

2021-02-01 08:11  
Roman7Fedorak
згідний, не одного серіалу немає без пропаганди

Цікава ідея 
VIP


З нами з: 25.12.11
Востаннє: 06.03.21
Повідомлень: 823

2021-02-13 22:30  
Друзі, ми переклали та озвучили 4 СЕРІЮ!
Підтримайте озвучення наступних серій,
реквізити в описі релізу.


Бажаємо всім приємного перегляду!

arikalumoto 
Свій


З нами з: 03.03.15
Востаннє: 05.03.21
Повідомлень: 50

2021-02-15 12:21  
Ну капець... а іншого актора на головну роль не було..? Такий серіал запороть... Я його звісно поважаю, але тільки як Сема Вінчестера... його постійні взагалі не потрібні гримаси щє в супернатурал надоїли...

Пропаганда? З чорними? Не думали, що тільки у вас в голові? У нас біла країна, і то кожен день зустрічаю в метро якихось студентів, дорослих набагато ріже, а це американське кіно... там їх дійсно стільки! Просто раніше зніматись не давали... Чи може ви китайське кіно включаєте, і такий... сука одни китайці! Ви взагалі знаєте, що на планеті з 10 людей тільки 1 білий? Африканців в 2 рази більше, а азиатів в 6... Про геїв складне питання... не думали, що їх теж достатньо багато, просто ховаються? Дивлячись, який капець в країні, то пі**расів у нас точно багато!

Цікава ідея 
VIP


З нами з: 25.12.11
Востаннє: 06.03.21
Повідомлень: 823

2021-02-20 19:12  
Друзі, ми переклали та озвучили 5 СЕРІЮ!
Підтримайте озвучення наступних серій,
реквізити в описі релізу.


Бажаємо всім приємного перегляду!

mu4a4i 
Частий відвідувач


З нами з: 05.11.10
Востаннє: 05.03.21
Повідомлень: 41

2021-02-21 16:58  
У порівнянні із старим Вокером складається таке враження, що сучасні реалії в американському суспільстві і справді змінилися
Ваш часовий пояс: GMT + 2 Години

Нова тема   Відповісти