Детектив Ренуар (Сезони 5-6) / Candice Renoir (Seasons 5-6) (2017-2018) 720p Ukr/Fre

Нові коментарі

Нова тема   Відповісти
Автор Повідомлення
Anonymous 







2021-01-23 16:57  
Детектив Ренуар (Сезони 5-6) / Candice Renoir (Seasons 5-6) (2017-2018) 720p Ukr/Fre


Детектив Ренуар (Сезони 5-6) / Candice Renoir (Seasons 5-6) (2017-2018) 720p Ukr/Fre


Жанр: детектив, драма, комедія, сімейний
Країна: Франція



Кінокомпанія: France 2
Режисер: Ніколас Пікард (Nicolas Picard), Олів’є Барма (Olivier Barma)
Актори: Сесіль Буа (Cécile Bois), Рафаель Ланґле (Raphaël Lenglet), Мамед Арескі (Mhamed Arezki), Гайя Верней (Gaya Verneuil), Дельфін Ріш (Delphine Rich), Саміра Лаккаб (Samira Lachhab) та інші

Сюжет:
Героїня фільму 10 років прожила з чоловіком в Сінгапурі. Сімейний корабель стрімко йде на дно, подружжя вирішило розлучитися. Четверо дітей – Емма, Жюль, Лео і Мартін, разом з мамою повертаються до Франції. Щоб прогодувати нащадків Кандіс Ренуар збирається повернутися на службу, до заміжжя вона була майором кримінальної поліції Парижа. За період її відсутності багато що змінилося, техніка пішла далеко вперед, а ось професіоналізм і логіка як і раніше в ціні.


Тривалість: 1 серія: ~50 хв. (цілком серій: 20)
Перелік серій
Сезон 5
01) Покірної голови меч не йме / Faute avouée à demi-pardonnée
02) Скажи хто твій друг і я скажу хто ти / Qui se ressemble s'assemble
03) Молоде й зелене / Il faut que jeunesse se passe
04) Гроші не пахнуть / L'argent n'a pas d'odeur
05) Клин клином вибивають / La vérité sort de la bouche des enfants
06) Краще пізно, ніж ніколи / Qui trop embrasse mal étreint
07) Цікавість - не гріх / La curiosité est un vilain défaut
08) Уночі всі кішки чорні / La nuit, tous les chats sont gris
09) Чого хоче жінка (частина перша) / Ce que femme veut… (1ère partie)
10) Чого хоче жінка (частина друга) / Ce que femme veut… (2ème partie)
Сезон 6
01) Краса вимагає жертв / Il faut souffrir pour être beau
02) Помста – це страва, яку подають холодною / La vengeance est un plat qui se mange froid
03) Добре сміється той, хто сміється останній / Rira bien qui rira le dernier
04) Прекрасна брехня, що долинає здалеку / À beau mentir qui vient de loin
05) Собака найкращий друг людини / Le chien est le meilleur ami de l'homme
06) Крапля переповнює чашу терпіння / C'est la goutte d'eau qui fait déborder le vase
07) Дорога до пекла встелена благими намірами / L'enfer est pavé de bonnes intentions
08) На війні, як на війні / À la guerre comme à la guerre
09) Сила в єдності (частина перша) / L'union fait la force (1ère partie)
10) Сила в єдності (частина друга) / L'union fait la force (2ème partie)
Якість:
Відео:
кодек:
розмір кадру: 1280 х 720
бітрейт: ~3000 кб/с

Аудіо # 1:
мова: українська
переклад: багатоголосий закадровий
кодек: 2.0
бітрейт: 192 кб/с

Аудіо # 2:
мова: французька
переклад: оригінал
кодек: 2.0
бітрейт: 192-384 кб/с

Джерело озвучення:
Info
General
General
Unique ID : 316503807588465034444948439819773528087 (0xEE1C6A828FE81DBAC9147A37A81FC817)
Complete name : F:\Support\series\Candice Renoir [, 720p, Ukr, Fre]\Season 5\Candice Renoir. s05e07. La curiosité est un vilain défaut.
Format :
Format version : Version 4
File size : 964 MiB
Duration : 49 min 45 s
Overall bit rate : 2 709 kb/s
Encoded date : UTC 2021-01-20 22:13:59
Writing application : v52.0.0 ('Secret For The Mad') 64-bit
Writing library : libebml v1.4.1 + v1.6.2

Video
ID : 1
Format : AVC
Format/Info : Advanced Video Codec
Format profile : [email protected]
Format settings : CABAC / 5 Ref Frames
Format settings, CABAC : Yes
Format settings, Reference : 5 frames
Codec ID : V_MPEG4/ISO/AVC
Duration : 49 min 45 s
Bit rate : 2 323 kb/s
Width : 1 280 pixels
Height : 720 pixels
Display aspect ratio : 16:9
Frame rate mode : Constant
Frame rate : 25.000 FPS
Color space : YUV
Chroma subsampling : 4:2:0
Bit depth : 8 bits
Scan type : Progressive
Bits/(Pixel*Frame) : 0.101
Stream size : 827 MiB (86%)
Writing library : core 148 r2762 90a61ec
Encoding settings : cabac=1 / ref=5 / deblock=1:0:0 / analyse=0x3:0x113 / me=hex / subme=8 / psy=1 / psy_rd=1.00:0.00 / mixed_ref=1 / me_range=16 / chroma_me=1 / trellis=2 / 8x8dct=1 / cqm=0 / deadzone=21,11 / fast_pskip=1 / chroma_qp_offset=-2 / threads=6 / lookahead_threads=1 / sliced_threads=0 / nr=0 / decimate=1 / interlaced=0 / bluray_compat=0 / constrained_intra=0 / bframes=3 / b_pyramid=2 / b_adapt=1 / b_bias=0 / direct=3 / weightb=1 / open_gop=0 / weightp=2 / keyint=250 / keyint_min=25 / scenecut=40 / intra_refresh=0 / rc_lookahead=50 / rc=crf / mbtree=1 / crf=18.0 / qcomp=0.60 / qpmin=0 / qpmax=69 / qpstep=4 / ip_ratio=1.40 / aq=1:1.00
Language : French
Default : Yes
Forced : No
Color range : Limited
Matrix coefficients : BT.709

Audio #1
ID : 2
Format : AC-3
Format/Info : Audio Coding 3
Commercial name : Dolby Digital
Codec ID : A_AC3
Duration : 49 min 45 s
Bit rate mode : Constant
Bit rate : 192 kb/s
Channel(s) : 2 channels
Channel layout : L R
Sampling rate : 48.0 kHz
Frame rate : 31.250 FPS (1536 SPF)
Compression mode : Lossy
Stream size : 68.3 MiB (7%)
Title : Інтер
Language : Ukrainian
Service kind : Complete Main
Default : Yes
Forced : No

Audio #2
ID : 3
Format : AC-3
Format/Info : Audio Coding 3
Commercial name : Dolby Digital
Codec ID : A_AC3
Duration : 49 min 45 s
Bit rate mode : Constant
Bit rate : 192 kb/s
Channel(s) : 2 channels
Channel layout : L R
Sampling rate : 48.0 kHz
Frame rate : 31.250 FPS (1536 SPF)
Compression mode : Lossy
Stream size : 68.3 MiB (7%)
Language : French
Service kind : Complete Main
Default : No
Forced : No
Скріншоти

Українську доріжку взято з роздачі https://toloka.to/t98317

Джерело: &
Особиста оцінка: 8 - мені сподобалося





Бронзовий реліз (на рейтинг впливає 75% завантаженого)
 Трекер:    Зареєстрований   

Завантажити / скачати серіал українською



відео для новачків



 Зареєстрований:   2021-02-17 00:35
 Розмір:   25.86 GB 
 Оцінка серіалу:   10/10 (Голосів: 4)
   
Anonymous 







2021-02-17 00:36  
Додав шостий сезон.
tetna 
VIP


З нами з: 21.11.14
Востаннє: 24.02.21
Повідомлень: 609

2021-02-17 20:19  
предякую!
tetna 
VIP


З нами з: 21.11.14
Востаннє: 24.02.21
Повідомлень: 609

2021-02-20 08:01  
а є хто на роздачі?
didusik 
Свій


З нами з: 25.09.15
Востаннє: 24.02.21
Повідомлень: 52

2021-02-20 08:27  
Станьте будь ласка хтось на роздачу !!!
tetna 
VIP


З нами з: 21.11.14
Востаннє: 24.02.21
Повідомлень: 609

2021-02-20 19:22  
а я б і від 7го вже не відмовилась)
Ваш часовий пояс: GMT + 2 Години

Нова тема   Відповісти