Воїн (Сезон 1) / Warrior (Season 1) (2019) 1080p Ukr/Eng | Sub Ukr/Eng

Нові коментарі

Нова тема   Відповісти
Автор Повідомлення
ievgensobko 
Новенький


З нами з: 05.01.16
Востаннє: 05.03.21
Повідомлень: 16

2021-01-23 12:21  
Воїн (Сезон 1) / Warrior (Season 1) (2019) 1080p Ukr/Eng | Sub Ukr/Eng

Воїн (Сезон 1) / Warrior (Season 1) (2019) 1080p Ukr/Eng | Sub Ukr/Eng


Жанр: драма, історичний, пригодницький, екшн, бойовик
Країна: США



Кінокомпанія: Bruce Lee Entertainment, Cinemax, Perfect Storm Entertainment, Tropper / Schickler Productions
Режисер: Лоні Перістер, Лін Одінг, Девід Петрарка, Асаф Бернштейн
Актори: Ендрю Коджі, Джейсон Тобін, Олівія Ченг, Кіран Бев, Річ Тінг, Раян Крюгер

Сюжет:
В середині XIX століття імперія Цин пережила дві Опіумні війни з Великобританією і занурилася у важку економічну кризу. Наслухавшись байок про незчисленні скарби американських золотошукачів, жителі Піднебесної чкурнули до Нового Світу. Влада США швидко пошкодували, що не взяли азіатських мігрантів на облік. Всього за пару десятиліть Америку наповнили десятки тисяч китайців, багато з яких почали займатися рекетом, проституцією, організацією підпільних казино та іншими брудними справами. У 1878 році в порт Сан-Франциско прибуває знавець бойових мистецтв А Сам. Хлопець хоче знайти свою сестру і скоріше повернутися в Піднебесну, проте несподіваний поворот долі змушує його затриматися в країні безмежних можливостей. Не встигає китаєць ступити на американську землю, як його починають задирати хулігани. Саму не залишається нічого іншого, як пустити в хід кулаки. Чутки про його ефектну розправу над декількома суперниками долітають до місцевого кримінального авторитета, якому якраз терміново потрібні вірні люди і досвідчені бійці. А Сам ще не здогадується, що прийнявши запрошення Великого боса, він потрапить в низку кривавих розборок з іншими угрупованнями Чайнатауна, що покладе початок небезпечного протистояння з продажними поліцейськими і корумпованими політиками.


Тривалість: 1 серія: 47:00 (цілком серій: 10)
Перелік серій

01 Батракові кортить
02 В Біблії немає Китаю
03 Джон Китаєць
04 Біла гора
05 Кров і лайно
06 Прожували, виплюнули і наступили
07 Тигр і Лисиця
08 Вони не платять нам достатньо, щоб ми думали
09 Китайський бокс
10 Якщо кланятися, то в ноги
Якість: 1080p

Відео:
кодек:
розмір кадру: 1920 х 1080
бітрейт: ~10 Мбіт/сек (залежить від серії)

Аудіо # 1:
мова: українська
переклад: одноголосий закадровий [ AnaivE ]
кодек: 2.0
бітрейт: 320 кб/с

Аудіо # 2:
мова: англійська
переклад: оригінал
кодек: 5.1
бітрейт: 1509 кб/с

Субтитри:
мова: українська
тип: програмні (м'які)
формат: *.srt

Субтитри:
мова: англійська
тип: програмні (м'які)
формат: *.srt
Info

Код:

General
Unique ID                                : 187489258820187221675972542732505696688 (0x8D0D1E26E9EB9CE3AF723B842BAFC9B0)
Complete name                            : /mnt/DATA/TVShows/Warrior/Warrior.2019.S01.1080p...[Ukr.Eng]/Warrior.2019.S01E03.John.Chinaman.1080p...[Ukr.Eng].
Format                                   :
Format version                           : Version 4
File size                                : 4.08 GiB
Duration                                 : 48 min 32 s
Overall bit rate                         : 12.0 Mb/s
Movie name                               : Warrior | S01E03 | John Chinaman
Encoded date                             : UTC 2021-01-18 16:40:13
Writing application                      : v52.0.0 ('Secret For The Mad') 64-bit
Writing library                          : libebml v1.4.1 + v1.6.2

Video
ID                                       : 1
Format                                   : AVC
Format/Info                              : Advanced Video Codec
Format profile                           : [email protected]
Format settings                          : CABAC / 4 Ref Frames
Format settings, CABAC                   : Yes
Format settings, Reference frames        : 4 frames
Codec ID                                 : V_MPEG4/ISO/AVC
Duration                                 : 48 min 32 s
Bit rate                                 : 10.2 Mb/s
Width                                    : 1 920 pixels
Height                                   : 1 080 pixels
Display aspect ratio                     : 16:9
Frame rate mode                          : Constant
Frame rate                               : 23.976 (24000/1001) FPS
Color space                              : YUV
Chroma subsampling                       : 4:2:0
Bit depth                                : 8 bits
Scan type                                : Progressive
Bits/(Pixel*Frame)                       : 0.205
Stream size                              : 3.46 GiB (85%)
Writing library                          : core 158 r2984 3759fcb
Encoding settings                        : cabac=1 / ref=4 / deblock=1:-3:-3 / analyse=0x3:0x113 / me=umh / subme=8 / psy=1 / psy_rd=1.00:0.00 / mixed_ref=1 / me_range=16 / chroma_me=1 / trellis=1 / 8x8dct=1 / cqm=0 / deadzone=21,11 / fast_pskip=1 / chroma_qp_offset=-2 / threads=30 / lookahead_threads=5 / sliced_threads=0 / nr=0 / decimate=1 / interlaced=0 / bluray_compat=0 / constrained_intra=0 / bframes=3 / b_pyramid=2 / b_adapt=1 / b_bias=0 / direct=3 / weightb=1 / open_gop=0 / weightp=2 / keyint=250 / keyint_min=23 / scenecut=40 / intra_refresh=0 / rc_lookahead=50 / rc=2pass / mbtree=1 / bitrate=10198 / ratetol=1.0 / qcomp=0.60 / qpmin=0 / qpmax=69 / qpstep=4 / cplxblur=20.0 / qblur=0.5 / ip_ratio=1.40 / aq=1:1.00
Language                                 : English
Default                                  : Yes
Forced                                   : No

Audio #1
ID                                       : 2
Format                                   : LC
Format/Info                              : Advanced Audio Codec Low Complexity
Codec ID                                 : A_AAC-2
Duration                                 : 48 min 32 s
Bit rate                                 : 320 kb/s
Channel(s)                               : 2 channels
Channel layout                           : L R
Sampling rate                            : 48.0 kHz
Frame rate                               : 46.875 FPS (1024 SPF)
Compression mode                         : Lossy
Delay relative to video                  : 148 ms
Stream size                              : 111 MiB (3%)
Title                                    : Одноголосий AnaivE
Language                                 : Ukrainian
Default                                  : Yes
Forced                                   : No

Audio #2
ID                                       : 3
Format                                   :
Format/Info                              : Digital Theater Systems
Codec ID                                 : A_DTS
Duration                                 : 48 min 32 s
Bit rate mode                            : Constant
Bit rate                                 : 1 509 kb/s
Channel(s)                               : 6 channels
Channel layout                           : C L R Ls Rs LFE
Sampling rate                            : 48.0 kHz
Frame rate                               : 93.750 FPS (512 SPF)
Bit depth                                : 24 bits
Compression mode                         : Lossy
Stream size                              : 524 MiB (13%)
Language                                 : English
Default                                  : No
Forced                                   : No

Text #1
ID                                       : 4
Format                                   : UTF-8
Codec ID                                 : S_TEXT/UTF8
Codec ID/Info                            : UTF-8 Plain Text
Duration                                 : 47 min 0 s
Bit rate                                 : 83 b/s
Count of elements                        : 574
Stream size                              : 28.7 KiB (0%)
Title                                    : Українська
Language                                 : Ukrainian
Default                                  : No
Forced                                   : No

Text #2
ID                                       : 5
Format                                   : UTF-8
Codec ID                                 : S_TEXT/UTF8
Codec ID/Info                            : UTF-8 Plain Text
Duration                                 : 48 min 29 s
Bit rate                                 : 71 b/s
Count of elements                        : 963
Stream size                              : 25.5 KiB (0%)
Title                                    : English
Language                                 : English
Default                                  : No
Forced                                   : No

Menu
00:00:00.000                             : en:00:00:00.000
00:03:20.200                             : en:00:03:20.200
00:12:51.396                             : en:00:12:51.396
00:23:50.512                             : en:00:23:50.512
00:28:58.570                             : en:00:28:58.570
00:37:54.272                             : en:00:37:54.272
00:47:01.986                             : en:00:47:01.986
Скріншоти






Джерело: &
Особиста оцінка: 8 - мені сподобалося


Авторський реліз (завантажувати можна без реєстрації)
 Трекер:    Зареєстрований   

Завантажити / скачати серіал українською



відео для новачків



 Зареєстрований:   2021-01-26 13:27
 Розмір:   39.09 GB 
 Оцінка серіалу:   10/10 (Голосів: 3)
   
igor911 
Модератор відео


З нами з: 18.01.08
Востаннє: 06.03.21
Повідомлень: 15623

2021-01-23 15:24  
ievgensobko написано:
Remux 1080p

subme=8 / me_range=16 / fast_pskip=1 / bframes=3 / rc=2pass / bitrate=8771

Це не Remux, якийсь сцен-ріп (швидкий неякісний ріп). На блуреї бітрейт ~28 Мб/с, в якісних ріпах ~ 15-19 Мб/с

Додано через 4 хвилини 15 секунд:

Виправте Remux на та вкажіть правильний бітрейт відео. Також, замініть скріншоти - для HD релізів вони мають бути у форматі png. Якщо розмір скріншотів понад 5 Мб - вантажте на img.hurtom.com після логіну - тоді квота збільшується до 15 Мб.

Ваш часовий пояс: GMT + 2 Години

Нова тема   Відповісти