Пташиний ульот / A Stork's Journey (2017) AVC 2xUkr/Eng | Sub Eng

Нові коментарі

Нова тема   Відповісти
Автор Повідомлення
Anonymous 







2021-01-21 18:46  
Пташиний ульот / A Stork's Journey (2017) AVC 2xUkr/Eng | Sub Eng


Жанр: пригоди, сімейний
Країна: Німеччина, Бельгія, Люксембург, Норвегія, США



Кінокомпанія: Den Siste Skilling, Ulysses Filmproduktion, Walking The Dog, Knudsen & Streuber Medienmanufaktur
Режисер: Тобі Генкель, Реза Мемарі
Ролі озвучують: Крістіан Гол, Ніколетт Кребіц, Маркус Офф, Мауд Акерманн, Джиммі Дзоппі та інші.

Сюжет:
Горобчик Річі дізнається, що в дитинстві він був усиновлений лелеками, коли їм настав час вирушити в далеку Африку. Для Річі тривалий переліт виявився не по силам і прийомні батьки залишили його. Бажаючи довести оточуючим і, насамперед, самому собі, що він справжній лелека, Річі, заручившись підтримкою друзів, відправляється в нелегку, але цікаву подорож...


Тривалість: 01:24:22
Якість:
Відео:
кодек:
розмір кадру: 1024 х 552
бітрейт: 1638 кб/с

Аудіо # 1:
мова: українська
озвучення: професійний дубляж | Tretyakoff production
кодек: 2.0
бітрейт: 192 кб/с

Аудіо # 2:
мова: українська
озвучення: професійне, багатоголосе закадрове |
кодек: 2.0 [стерео]
бітрейт: 192 кб/с
примітка: озвучено поверх російського дубляжу
Інформація про озвучення:
Ролі озвучили: Кирило Татарченко, Юлія Шаповал, Олена Бліннікова, Володимир Терещук та ще один чоловічий.

Аудіо # 3:
мова: англійська
озвучення: оригінал
кодек: 5.1
бітрейт: 448 кб/с

Субтитри # 1:
мова: англійська
тип: програмні (м'які)
формат: *.srt
Info
General
Unique ID : 202359127701218687664572103419881302838 (0x983CF34A87A66CD2AFE19B00398FAB36)
Complete name : D:\A Stork's Journey (2017) AVC [UKR_ENG] [Hurtom].
Format :
Format version : Version 2
File size : 1.45 GiB
Duration : 1 h 24 min
Overall bit rate : 2 469 kb/s
Movie name : Пташиний ульот / Richard the Stork / A Stork's Journey (2017)
Encoded date : UTC 2021-01-21 15:18:38
Writing application : v4.1.1 ('Bouncin' Back') built on Jul 3 2010 22:54:08
Writing library : libebml v1.0.0 + v1.0.0
Cover : Yes
Attachments : cover.jpg

Video
ID : 1
Format : AVC
Format/Info : Advanced Video Codec
Format profile : [email protected]
Format settings, CABAC : Yes
Format settings, RefFrames : 12 frames
Codec ID : V_MPEG4/ISO/AVC
Duration : 1 h 24 min
Bit rate : 1 588 kb/s
Width : 1 024 pixels
Height : 552 pixels
Display aspect ratio : 1.85:1
Frame rate mode : Constant
Frame rate : 23.976 FPS
Color space : YUV
Chroma subsampling : 4:2:0
Bit depth : 8 bits
Scan type : Progressive
Bits/(Pixel*Frame) : 0.117
Stream size : 958 MiB (64%)
Writing library : core 146 r2538 121396c
Encoding settings : cabac=1 / ref=12 / deblock=1:-1:-1 / analyse=0x3:0x133 / me=umh / subme=9 / psy=1 / psy_rd=0.40:0.00 / mixed_ref=1 / me_range=24 / chroma_me=1 / trellis=2 / 8x8dct=1 / cqm=0 / deadzone=21,11 / fast_pskip=1 / chroma_qp_offset=-2 / threads=24 / lookahead_threads=4 / sliced_threads=0 / nr=0 / decimate=1 / interlaced=0 / bluray_compat=0 / constrained_intra=0 / bframes=8 / b_pyramid=2 / b_adapt=2 / b_bias=0 / direct=1 / weightb=1 / open_gop=0 / weightp=2 / keyint=250 / keyint_min=23 / scenecut=40 / intra_refresh=0 / rc_lookahead=60 / rc=crf / mbtree=1 / crf=19.0 / qcomp=0.70 / qpmin=0 / qpmax=69 / qpstep=4 / ip_ratio=1.40 / aq=1:0.60
Language : English
Default : Yes
Forced : No
Statistics Tags Issue : v24.0.0 ('Beyond The Pale') 64-bit 2018-07-21 20:16:20 / v4.1.1 ('Bouncin' Back') built on Jul 3 2010 22:54:08 2021-01-21 15:18:38
FromStats_BitRate : 1637933
FromStats_Duration : 01:24:21.690000000
FromStats_FrameCount : 121359
FromStats_StreamSize : 1036339091

Audio #1
ID : 2
Format : AC-3
Format/Info : Audio Coding 3
Format settings, Endianness : Big
Muxing mode : Header stripping
Codec ID : A_AC3
Duration : 1 h 24 min
Bit rate mode : Constant
Bit rate : 192 kb/s
Channel(s) : 2 channels
Channel positions : Front: L R
Sampling rate : 48.0 kHz
Frame rate : 31.250 FPS (1536 SPF)
Bit depth : 16 bits
Compression mode : Lossy
Stream size : 116 MiB (8%)
Title : Tretyakoff production
Language : Ukrainian
Service kind : Complete Main
Default : Yes
Forced : Yes
Statistics Tags Issue : v24.0.0 ('Beyond The Pale') 64-bit 2018-07-21 20:16:20 / v4.1.1 ('Bouncin' Back') built on Jul 3 2010 22:54:08 2021-01-21 15:18:38
FromStats_BitRate : 192000
FromStats_Duration : 01:24:09.696000000
FromStats_FrameCount : 157803
FromStats_StreamSize : 121192704

Audio #2
ID : 3
Format : AC-3
Format/Info : Audio Coding 3
Format settings, Endianness : Big
Muxing mode : Header stripping
Codec ID : A_AC3
Duration : 1 h 24 min
Bit rate mode : Constant
Bit rate : 192 kb/s
Channel(s) : 2 channels
Channel positions : Front: L R
Sampling rate : 48.0 kHz
Frame rate : 31.250 FPS (1536 SPF)
Bit depth : 16 bits
Compression mode : Lossy
Stream size : 116 MiB (8%)
Title : Cine+ Kids HD
Language : Ukrainian
Service kind : Complete Main
Default : No
Forced : No

Audio #3
ID : 4
Format : AC-3
Format/Info : Audio Coding 3
Format settings, Endianness : Big
Muxing mode : Header stripping
Codec ID : A_AC3
Duration : 1 h 24 min
Bit rate mode : Constant
Bit rate : 448 kb/s
Channel(s) : 6 channels
Channel positions : Front: L C R, Side: L R, LFE
Sampling rate : 48.0 kHz
Frame rate : 31.250 FPS (1536 SPF)
Bit depth : 16 bits
Compression mode : Lossy
Stream size : 270 MiB (18%)
Title : Original
Language : English
Service kind : Complete Main
Default : No
Forced : No

Text
ID : 5
Format : UTF-8
Codec ID : S_TEXT/UTF8
Codec ID/Info : UTF-8 Plain Text
Title : Full
Language : English
Default : No
Forced : No

Menu
00:00:00.000 : en:00:00:00.000
00:10:06.022 : en:00:10:06.022
00:21:00.008 : en:00:21:00.008
00:31:02.443 : en:00:31:02.443
00:43:06.000 : en:00:43:06.000
00:52:04.538 : en:00:52:04.538
01:03:14.081 : en:01:03:14.081
01:13:09.760 : en:01:13:09.760
01:18:29.955 : en:01:18:29.955
Скріншоти
Подяки:
за запис з ТБ та синхронізацію доріжки №1 - п. sergiyko.5.
за запис з ТБдоріжки №2 - п.Sando7.
Джерело: &
Особиста оцінка: 0 - не дивився


 Трекер:    Зареєстрований   

Завантажити / скачати мультфільм українською



відео для новачків



 Зареєстрований:   2021-01-21 18:46
 Розмір:   1.45 GB 
 Оцінка мультфільму:   10/10 (Голосів: 9)
   
Інші релізи
eXteSy- 
VIP


З нами з: 06.04.09
Востаннє: 18.04.21
Повідомлень: 2313

2021-01-21 21:16  
Добрий і приємний мульт. Не варто очікувати нічого шедеврального, але це - міцно зроблений середняк. Анімація трохи дивна: моментами кострубата, моментами - суперова (наприклад, вода).
Сюжет відображає теперішні толерантні тренди і розказує про те, що можна досягти чого завгодно і бути ким завгодно, незважаючи на те, ким ти народився. Останніми роками фільмів/мультів, які обігрують різноманітними способами цю тему, просто безліч.
7/10

akon111 
Відео Гуртом - запис з ТБ
Відео Гуртом - запис з ТБ


З нами з: 28.08.09
Востаннє: 18.04.21
Повідомлень: 1376

2021-01-22 01:34  
Anonymous написано:
примітка: озвучено поверх російського дубляжу


нє ну це бан каналу

21jumpstreet 
VIP


З нами з: 03.07.12
Востаннє: 18.04.21
Повідомлень: 1828

2021-01-22 01:37  
akon111
Плюси теж

Ваш часовий пояс: GMT + 2 Години

Нова тема   Відповісти