Северин Наливайко. Остання битва! (2019) 1080p

Нові коментарі

Нова тема   Відповісти
Автор Повідомлення
Anonymous 







2021-01-21 16:40  
Северин Наливайко. Остання битва! (2019) 1080p

Северин Наливайко. Остання битва! (2019) 1080p


Жанр: документально-ігровий, драма, історичний
Країна: Україна

Кінокомпанія: Eidetic Pictures
Режисер: Ігор Висневський
Актори: Євген Олійник, Олександр Форманчук, Денис Шевченко, Віктор Кошевенко, Василь Кухарський, Сергій Петько, Олександр Ганноченко, Марія Кочук, Олена Хохлаткіна, В'ячеслав Давидюк, Роман Халаімов, Ірина Гришак та ін.

Сюжет:
Щоб повернути свої спадкові права, Северин Наливайко (невизнаний син князя Дмитра Сангушка і княжни Гальшки Острозької), на чолі війська з таких саме позбавлених прав сміливців б’ється проти армії Речі Посполитої за свободу України: адже тільки у вільній «Козацькій республіці» він може відновити справедливість і стати тим, ким є по праву.
Але найстрашнішим ворогом Наливайка стають не поляки, а власні союзники-запорожці, для яких станова пиха є сильнішою за почуття єдиного народу.


Тривалість: 01:30:00
Якість:
Відео:
кодек:
розмір кадру: 1920 х 1080
бітрейт: 4374 кб/с

Аудіо:
мова: українська
переклад: оригінал
кодек: 2.0
бітрейт: 96 кб/с
Info
Код:
General
Complete name                            : Северин Наливайко. Остання битва! (2019) HDTV 1080p [Ukr] [Hurtom].mp4
Format                                   : MPEG-4
Format profile                           : Base Media
Codec ID                                 : isom (isom/iso2/avc1/mp41)
File size                                : 2.81 GiB
Duration                                 : 1 h 30 min
Overall bit rate mode                    : Variable
Overall bit rate                         : 4 476 kb/s
Writing application                      : Lavf54.63.104

Video
ID                                       : 1
Format                                   : AVC
Format/Info                              : Advanced Video Codec
Format profile                           : [email protected]
Format settings                          : CABAC / 4 Ref Frames
Format settings, CABAC                   : Yes
Format settings, Reference frames        : 4 frames
Codec ID                                 : avc1
Codec ID/Info                            : Advanced Video Coding
Duration                                 : 1 h 30 min
Bit rate mode                            : Variable
Bit rate                                 : 4 376 kb/s
Maximum bit rate                         : 5 000 kb/s
Width                                    : 1 920 pixels
Height                                   : 1 080 pixels
Display aspect ratio                     : 16:9
Frame rate mode                          : Constant
Frame rate                               : 25.000 FPS
Standard                                 : Component
Color space                              : YUV
Chroma subsampling                       : 4:2:0
Bit depth                                : 8 bits
Scan type                                : Progressive
Bits/(Pixel*Frame)                       : 0.084
Stream size                              : 2.75 GiB (98%)
Color range                              : Limited
Color primaries                          : BT.709
Transfer characteristics                 : BT.709
Matrix coefficients                      : BT.709
Codec configuration box                  : avcC

Audio
ID                                       : 2
Format                                   : LC SBR
Format/Info                              : Advanced Audio Codec Low Complexity with Spectral Band Replication
Commercial name                          : HE-
Format settings                          : Implicit
Codec ID                                 : mp4a-40-2
Duration                                 : 1 h 30 min
Duration_LastFrame                       : -43 ms
Bit rate mode                            : Constant
Bit rate                                 : 96.0 kb/s
Channel(s)                               : 2 channels
Channel layout                           : L R
Sampling rate                            : 48.0 kHz
Frame rate                               : 23.438 FPS (2048 SPF)
Compression mode                         : Lossy
Stream size                              : 61.0 MiB (2%)
Language                                 : English
Default                                  : Yes
Alternate group                          : 1

Скріншоти





Джерело: і UA:Перший HD


Золотий реліз (завантажене не впливає на рейтинг)
 Трекер:    Зареєстрований   

Завантажити / скачати український фільм



відео для новачків



 Зареєстрований:   2021-01-21 16:40
 Розмір:   2.81 GB 
 Оцінка фільму:   9.6/10 (Голосів: 54)
   
Zaporoghets 
Свій


З нами з: 08.05.13
Востаннє: 06.03.21
Повідомлень: 52

2021-01-22 15:29  
Класний фільм, і правдивий з історичної точки зору.
Всім раджу подивитись.

Rostyk74 
Новенький


З нами з: 09.06.08
Востаннє: 28.02.21
Повідомлень: 11

2021-01-27 17:51  
Для чого знімати театральщину??? Якщо робити фільм - то якісний, а не суміш кіно, театру і аматорства. Підняття історичних тематик це дуже калсно, але і продукт тоді має бути високоякісний.
Vanjok89 
Новенький


З нами з: 22.12.14
Востаннє: 27.02.21
Повідомлень: 1

2021-01-30 04:03  
Читав років 13 назад книгу Івана Ле "Северин Наливайко", хороша книга, в якій зображено трагічну для українського повстанського руху сторінку історії. Раджу всім, хто цікавиться історією, прочитати її. Фільм скачав. Продивлюся. Напишу відгук.
White_123 
VIP


З нами з: 15.02.13
Востаннє: 06.03.21
Повідомлень: 261

2021-01-30 21:02  
Фільм і справді ігровий - наче в театр сходив. Якихось ефектів чи бойових сцен мінімум.
В цілому мені було цікаво переглянути. Але сприймати фільм треба саме як театральну виставу, бо він майже таким і є.

evbudko 
Частий відвідувач


З нами з: 12.01.15
Востаннє: 06.03.21
Повідомлень: 43

2021-02-15 18:40  
Почитав анотацію і вкотре афігєл від українських мистців. Значить, Наливайко боровся за власні втрачені права, його зрадили свої. А не можна нарешті зняти такий фільм, бляха, де не два українці - три гетьмани, де вони одне одного підтримали і перемогли? Що за мазохізм такий національний? Та "Шляхетні шахраї" вдесятеро потрібніші публіці, бо там українці веселі та вдатні! Чи в нас тільки волоцюги такими бувають? Не хочу я їхнього Наливайка, дістали вже. Подивлюся ще раз "Червоного".
Гонта 
Поважний учасник


З нами з: 16.12.09
Востаннє: 08.03.21
Повідомлень: 182

2021-02-17 15:21  
Чергове відмивання грошей на фільмі. Якість - "не варто напружуватися - піпл все схаває".
roxj 
Свій


З нами з: 31.10.17
Востаннє: 07.03.21
Повідомлень: 72

2021-02-24 10:25  
Фільм непоганий- дійсно знятий більше як иеатральна вистова на "свіжому повітрі".
З самого початку разом із титрами, хто знімається іде голос автора з хронікою подій тої доби, це цікаво, але з титрами на початку фільму зовсім не сприймається.
Переглянути варто, ми як нація лише на початку шляху про героїчне кіно різної історичної доби.
6 із 10, обов"язково буде краще.

andriy_nv 
VIP


З нами з: 27.06.08
Востаннє: 07.03.21
Повідомлень: 1134

2021-03-02 18:56  
Чому поляки у фільмі розмовляють українською, а московити - російською?
якщо вже "перекладати" то всіх.

кіно... любителям історичних фільмів на один раз

Ваш часовий пояс: GMT + 2 Години

Нова тема   Відповісти