Велика битва / Ansiseong (The Great Battle) (2018) Kor | sub Ukr

Нові коментарі

Нова тема   Відповісти
Автор Повідомлення
killer2015 
VIP


З нами з: 30.01.15
Востаннє: 22.04.21
Повідомлень: 495

2021-01-21 13:08  
Велика битва / Ansiseong (The Great Battle) (2018) Kor | sub Ukr

Велика битва / Ansiseong (The Great Battle) (2018) Kor | sub Ukr


Жанр: Бойовик, військовий, історія
Країна: Південна Корея



Кінокомпанія: Next Entertainment World, Soojak Films
Режисер: Кван Сік Кім
Актори: Ін Сон Чо, Чжу Хек Нам, Сон Ун Пак, Сон У Пе, Тхе Гу Ом, Сіль Хен Кім, Бен Ин Пак, Де Хван О, Дон Іль Сон, Ин Чхе Чон, Гван Чан, Хве Хен Е, Стефані Лі, ін Гём Чон, Про Сон Ю, Ук Кім, Ю Рам Сін, Чон Ре Ю, Сік Тхе Чу

Сюжет:
Чи Шимінь, імператор династії Тан, після розгрому в 630 році Східно-тюркського каганату вирішив підкорити Когурьо, одна з ранніх корейских держав. Завойовницький похід імператора був успішним: фортеці падали одна за одною, китайська армія розбивала піхоту і кінноту супротивника. Переможений в одній з битв генерал Ен посилає кадета Са-муля вбити зрадника Ян Ман-Чхуннам, коменданта фортеці Ансі. У 645 році Лі Шимінь підійшов до Ансі. Маючи чисельну перевагу, імператор вважав, що взяття фортеці - справа одного дня, але генерал Ян Ман-Чхун з нечисленними солдатами армії Когурьо буде за всяку ціну тримати оборону фортеці Ансі - останнього рубежу на шляху до Пхеньяну.


Тривалість: 02:16:07
Якість:
Відео:
кодек:
розмір кадру: 720x304
бітрейт: 1 641 кб/с

Аудіо:
мова: корейська
переклад: оригінал
кодек: 5.1
бітрейт: 448 кб/с

Субтитри:
мова: українська
(редагований переклад Killer2015)
тип: програмні (м'які)
формат: *.srt
МІ
General
Complete name : G:\Фільми\The.Great.Battle.2018.\The.Great.Battle.2018..avi
Format : AVI
Format/Info : Audio Video Interleave
File size : 2.00 GiB
Duration : 2 h 16 min
Overall bit rate : 2 100 kb/s

Video
ID : 0
Format : MPEG-4 Visual
Format profile : Advanced [email protected]
Format settings : BVOP2 / Custom Matrix
Format settings, BVOP : 2
Format settings, QPel : No
Format settings, GMC : No warppoints
Format settings, Matrix : Custom
Codec ID :
Codec ID/Hint :
Duration : 2 h 16 min
Bit rate : 1 641 kb/s
Width : 720 pixels
Height : 304 pixels
Display aspect ratio : 2.35:1
Frame rate : 23.976 (24000/1001) FPS
Original frame rate : 23.976 (23976/1000) FPS
Color space : YUV
Chroma subsampling : 4:2:0
Bit depth : 8 bits
Scan type : Progressive
Compression mode : Lossy
Bits/(Pixel*Frame) : 0.313
Stream size : 1.56 GiB (78%)
Writing library : 73

Audio
ID : 1
Format : AC-3
Format/Info : Audio Coding 3
Commercial name : Dolby Digital
Codec ID : 2000
Duration : 2 h 16 min
Bit rate mode : Constant
Bit rate : 448 kb/s
Channel(s) : 6 channels
Channel layout : L R C LFE Ls Rs
Sampling rate : 48.0 kHz
Frame rate : 31.250 FPS (1536 SPF)
Compression mode : Lossy
Stream size : 437 MiB (21%)
Alignment : Aligned on interleaves
Interleave, duration : 32 ms (0.77 video frame)
Service kind : Complete Main
Скріншоти








Джерело:
Особиста оцінка: 10 - без зайвих вагань рекомендую всім!


 Трекер:    Зареєстрований   

Завантажити / скачати фільм українською



відео для новачків



 Зареєстрований:   2021-01-21 13:08
 Розмір:   2 GB 
 Оцінка фільму:   7.8/10 (Голосів: 4)
   
killer2015 
VIP


З нами з: 30.01.15
Востаннє: 22.04.21
Повідомлень: 495

2021-01-21 13:11  

Масштабний військовий фільм. Дуже сподобався. Цікаво спостерігати як 5 тис. хоробрих воїнів захищають свою фортецю (свій дім) від 200 тис. армії ворога. Фільм мені нагадав - Дві вежі - та - Царство небесне -.

LesiaLesia 
Свій


З нами з: 03.05.12
Востаннє: 22.04.21
Повідомлень: 66

2021-01-21 14:04  
Якби ж хтось озвучив(
А то в корейськый не петраю

+380954897458 
VIP


З нами з: 02.06.17
Востаннє: 22.03.21
Повідомлень: 1132

2021-01-21 20:42  
LesiaLesia
Українські субтитри Вам у поміч. В українській петраєте?

LesiaLesia 
Свій


З нами з: 03.05.12
Востаннє: 22.04.21
Повідомлень: 66

2021-01-22 12:45  
+380954897458
Ну звичайно ж)

Ваш часовий пояс: GMT + 2 Години

Нова тема   Відповісти