Академія Амбрелла (Сезон 1) / The Umbrella Academy (Season 1) (2019) 2160p HDR H.265 Ukr/Eng | Sub Eng

Нові коментарі

Нова тема   Відповісти
Автор Повідомлення
ievgensobko 
Новенький


З нами з: 05.01.16
Востаннє: 04.03.21
Повідомлень: 16

2021-01-21 11:25  
Академія Амбрелла (Сезон 1) / The Umbrella Academy (Season 1) (2019) 2160p HDR H.265 Ukr/Eng | Sub Eng

Академія Амбрелла (Сезон 1) / The Umbrella Academy (Season 1) (2019) 2160p HDR H.265 Ukr/Eng | Sub Eng


Жанр: драма, пригодницький, екшн, фантастика
Країна: США



Кінокомпанія: Dark Horse Entertainment, Netflix, Universal Cable Productions
Режисер: Ендрю Бернштейн, Пітер Хор, Еллен Керас
Актори: Ейдан Галлахер, Джастін Х. Мін, Камерон Бріттон, Іден К'юпід, Кемерон Бродер, Ітан Хван, Еллен Пейдж, Том Хоппер, Девід Кастанеда, Мері Джей Блайдж

Сюжет:
Події розгортються в альтернативніму всесвіті. В середині 20-го століття 43 жінки, які до цього не були вагітні, одночасно народжують немовлят, наділених суперздатностями. Прибулець, що ховається під личиною сера Реджинальда Гарггрівса, рятує сімох новонароджених і створює Академію «Амбрелла». Разом вони використовують свої таланти для захисту Землі.


Тривалість: 1 серія: 55:00 (цілком серій: 10)
Перелік серій

01 Ми бачимося лише на весіллях і похоронах
02 Біжи, хлопче, біжи
03 Екстраординарний
04 Людина на Місяці
05 Номер П’ять
06 День, якого не було
07 День, який був
08 Я чув плітку
09 Зміни
10 Біла скрипка
Якість: 4K 2160p [Netflix]

Відео:
кодек: H.265 (HEVC)
розмір кадру: 3840 х 1920
бітрейт: ~15 Мбіт/сек (залежить від серії)
бітова глибина: 10 біт
кольоровий простір: BT.2020 (HDR)

Увага! Перед завантаженням переконайтесь, що ваш пристрій відтворення (та/або ПЗ) підтримує H.265 (HEVC)

Аудіо # 1:
мова: українська
переклад: багатоголосий закадровий [ DniproFilm ]
кодек: 5.1
бітрейт: 384 кб/с

Аудіо # 2:
мова: англійська
переклад: оригінал
кодек: 5.1
бітрейт: 640 кб/с

Субтитри:
мова: англійська
тип: програмні (м'які)
формат: *.srt
Info

Код:

General
Unique ID                                : 65679366823146064313117645732068402373 (0x316962CC4360F6FAD941EC1C008B24C5)
Complete name                            : The.Umbrella.Academy.S01E08.I.Heard.a.Rumor.2160p.NF..x265.HDR.[Ukr.Eng].
Format                                   :
Format version                           : Version 4
File size                                : 5.94 GiB
Duration                                 : 50 min 56 s
Overall bit rate                         : 16.7 Mb/s
Movie name                               : Академія Амбрелла | S01E08 | Я чув плітку
Encoded date                             : UTC 2019-11-14 14:18:02
Writing application                      : Lavf58.45.100
Writing library                          : Lavf58.45.100
ErrorDetectionType                       : Per level 1

Video
ID                                       : 1
Format                                   : HEVC
Format/Info                              : High Efficiency Video Coding
Format profile                           : Main [email protected]@Main
HDR format                               : SMPTE ST 2086, HDR10 compatible
Codec ID                                 : V_MPEGH/ISO/HEVC
Bit rate                                 : 15.4 Mb/s
Width                                    : 3 840 pixels
Height                                   : 2 160 pixels
Display aspect ratio                     : 16:9
Frame rate mode                          : Variable
Original frame rate                      : 23.976 FPS
Color space                              : YUV
Chroma subsampling                       : 4:2:0 (Type 2)
Bit depth                                : 10 bits
Default                                  : Yes
Forced                                   : No
Color range                              : Limited
Color primaries                          : BT.2020
Transfer characteristics                 : PQ
Matrix coefficients                      : BT.2020 non-constant
Mastering display color primaries        : Display P3
Mastering display luminance              : min: 0.0020 cd/m2, max: 1000 cd/m2
Maximum Content Light Level              : 1197 cd/m2
Maximum Frame-Average Light Level        : 669 cd/m2

Audio #1
ID                                       : 2
Format                                   : AC-3
Format/Info                              : Audio Coding 3
Commercial name                          : Dolby Digital
Codec ID                                 : A_AC3
Duration                                 : 50 min 56 s
Bit rate mode                            : Constant
Bit rate                                 : 384 kb/s
Channel(s)                               : 6 channels
Channel layout                           : L R C LFE Ls Rs
Sampling rate                            : 48.0 kHz
Frame rate                               : 31.250 FPS (1536 SPF)
Bit depth                                : 32 bits
Compression mode                         : Lossy
Stream size                              : 140 MiB (2%)
Language                                 : Ukrainian
Service kind                             : Complete Main
Default                                  : Yes
Forced                                   : No

Audio #2
ID                                       : 3
Format                                   : E-AC-3
Format/Info                              : Enhanced AC-3
Commercial name                          : Dolby Digital Plus
Codec ID                                 : A_EAC3
Duration                                 : 50 min 56 s
Bit rate mode                            : Constant
Bit rate                                 : 640 kb/s
Channel(s)                               : 6 channels
Channel layout                           : L R C LFE Ls Rs
Sampling rate                            : 48.0 kHz
Frame rate                               : 31.250 FPS (1536 SPF)
Bit depth                                : 32 bits
Compression mode                         : Lossy
Stream size                              : 233 MiB (4%)
Language                                 : English
Service kind                             : Complete Main
Default                                  : No
Forced                                   : No

Text
ID                                       : 4
Format                                   : UTF-8
Codec ID                                 : S_TEXT/UTF8
Codec ID/Info                            : UTF-8 Plain Text
Title                                    : SDH
Language                                 : English
Default                                  : No
Forced                                   : No
Скріншоти





Джерело: &
Особиста оцінка: 8 - мені сподобалося



Авторський реліз (завантажувати можна без реєстрації)
 Трекер:    Зареєстрований   

Завантажити / скачати серіал українською



відео для новачків



 Зареєстрований:   2021-01-26 15:15
 Розмір:   61.42 GB 
 Оцінка серіалу:   7.7/10 (Голосів: 3)
   
ievgensobko 
Новенький


З нами з: 05.01.16
Востаннє: 04.03.21
Повідомлень: 16

2021-01-22 06:58  

Перезібрано всі серії для коректного відтворення в Emby на Nvidia Shield
Прохання перезавантажити торент і перехешувати

sirkon10 
Свій


З нами з: 13.05.12
Востаннє: 04.03.21
Повідомлень: 65

2021-01-26 17:26  
Вам по приколу вже втретє змінювати торрент-файл? Коли вже можна буде нарешті почати завантажувати?
Ще якісь зміни очікувати?

ievgensobko 
Новенький


З нами з: 05.01.16
Востаннє: 04.03.21
Повідомлень: 16

2021-01-26 18:10  
sirkon10
Все, вже остаточний варіант.
Перепрошую за незручності.
Як вибачення очікуйте другий сезон в такій же ж якості за тиждень-два

sirkon10 
Свій


З нами з: 13.05.12
Востаннє: 04.03.21
Повідомлень: 65

2021-01-26 18:59  
Дякую! Будемо завантажувати ))
Ваш часовий пояс: GMT + 2 Години

Нова тема   Відповісти