Ліга Європи УЄФА 2011/12 | Металіст Харків - Аустрія Відень | Груповий етап, 5 тур | Футбол 3 (2011) IPTV

Нові коментарі

Нова тема   Відповісти
Останній раз роздавалося misamisk (2021-02-24)
Автор Повідомлення
misamisk 
Поважний учасник


З нами з: 16.10.17
Востаннє: 25.02.21
Повідомлень: 154

2021-01-21 10:08  
Ліга Європи УЄФА 2011/12 | Металіст Харків - Аустрія Відень | Груповий етап, 5 тур | Футбол 3 (2011) IPTV



Телеканал: Футбол 3
Опис:
Матч п'ятого туру групового етапу Ліги Європи УЄФА сезону 2011/12 між харківським "Металістом" та віденьською "Аустрією" відбувся 30 листопада 2011 року в Харкові на ОСК "Металіст".


Тривалість: 01:41:12
Якість:
Відео:
кодек:
розмір кадру: 1920x1080
бітрейт: ~3641 кб/с

Аудіо:
мова: українська
переклад: одноголосий закадровий | Владислав Шалота
кодек: 2.0
бітрейт: 129 кб/с
Стартові склади
Info
Код:
General
Unique ID                                : 238294771086427754123098993177690905405 (0xB345E74D423ED1573AD9268CA2C01B3D)
Complete name                            : /UEFA.Europa.League.2011-12.Group.Stage.Matchday.5.Metalist.Kharkiv-Austria.Wien.30.11.2011.IPTV.
Format                                   :
Format version                           : Version 4
File size                                : 2.67 GiB
Duration                                 : 1 h 41 min
Overall bit rate                         : 3 773 kb/s
Movie name                               : UEFA Europa League 2011/12. Group Stage. Matchday 5. Metalist Kharkiv - Austria Wien
Encoded date                             : UTC 2021-01-20 19:54:12
Writing application                      : v24.0.0 ('Beyond The Pale') 64-bit
Writing library                          : libebml v1.3.6 + v1.4.9

Video
ID                                       : 1
Format                                   : AVC
Format/Info                              : Advanced Video Codec
Format profile                           : [email protected]
Format settings                          : 2 Ref Frames
Format settings, CABAC                   : No
Format settings, Reference frames        : 2 frames
Format settings, GOP                     : M=3, N=25
Codec ID                                 : V_MPEG4/ISO/AVC
Duration                                 : 1 h 41 min
Bit rate                                 : 3 641 kb/s
Nominal bit rate                         : 2 065 kb/s
Width                                    : 1 920 pixels
Height                                   : 1 080 pixels
Display aspect ratio                     : 16:9
Frame rate mode                          : Constant
Frame rate                               : 25.000 FPS
Original frame rate                      : 24.000 FPS
Color space                              : YUV
Chroma subsampling                       : 4:2:0
Bit depth                                : 8 bits
Scan type                                : Progressive
Bits/(Pixel*Frame)                       : 0.070
Stream size                              : 2.57 GiB (97%)
Title                                    : UEFA Europa League 2011/12. Group Stage. Matchday 5. Metalist Kharkiv - Austria Wien
Writing library                          : core 160 r3000
Encoding settings                        : cabac=0 / ref=2 / deblock=1:0:0 / analyse=0x1:0x111 / me=hex / subme=4 / psy=1 / psy_rd=1.00:0.00 / mixed_ref=0 / me_range=16 / chroma_me=1 / trellis=1 / 8x8dct=0 / cqm=0 / deadzone=21,11 / fast_pskip=1 / chroma_qp_offset=0 / threads=4 / lookahead_threads=1 / sliced_threads=0 / nr=0 / decimate=1 / interlaced=0 / bluray_compat=0 / constrained_intra=0 / bframes=3 / b_pyramid=2 / b_adapt=1 / b_bias=0 / direct=1 / weightb=1 / open_gop=0 / weightp=1 / keyint=25 / keyint_min=2 / scenecut=0 / intra_refresh=0 / rc_lookahead=20 / rc=abr / mbtree=1 / bitrate=2065 / ratetol=1.0 / qcomp=0.60 / qpmin=0 / qpmax=69 / qpstep=4 / vbv_maxrate=19999 / vbv_bufsize=3750 / nal_hrd=none / filler=0 / ip_ratio=1.40 / aq=1:1.00
Language                                 : English
Default                                  : Yes
Forced                                   : No

Audio
ID                                       : 2
Format                                   : LC
Format/Info                              : Advanced Audio Codec Low Complexity
Codec ID                                 : A_AAC-2
Duration                                 : 1 h 41 min
Bit rate                                 : 129 kb/s
Channel(s)                               : 2 channels
Channel layout                           : L R
Sampling rate                            : 48.0 kHz
Frame rate                               : 46.875 FPS (1024 SPF)
Compression mode                         : Lossy
Stream size                              : 93.3 MiB (3%)
Title                                    : Commentaries by Vladislav Shalota
Language                                 : Ukrainian
Default                                  : Yes
Forced                                   : No

Menu
00:00:00.000                             : en:Half 1
00:50:14.080                             : en:Half 2
Скріншоти


Золотий реліз (завантажене не впливає на рейтинг)
 Трекер:    Зареєстрований   

Завантажити / скачати торрент



відео для новачків



 Зареєстрований:   2021-01-21 10:08
 Розмір:   2.67 GB 
 Оцінка:   10/10 (Голосів: 3)
   
1985ad 
Свій


З нами з: 27.04.17
Востаннє: 25.02.21
Повідомлень: 149

2021-01-21 12:07  
Це що, якийсь повтор був, чи канал Футбол 3, а відповідно і я, такий старий?
misamisk 
Поважний учасник


З нами з: 16.10.17
Востаннє: 25.02.21
Повідомлень: 154

2021-01-21 12:34  
1985ad
Так, повтор був, Футбол 3 запустили тільки у березні 2020-го

1985ad 
Свій


З нами з: 27.04.17
Востаннє: 25.02.21
Повідомлень: 149

2021-01-21 14:18  
Зрозуміло, дякую.
601сан 
VIP


З нами з: 22.05.12
Востаннє: 25.02.21
Повідомлень: 348

2021-01-22 19:14  
misamisk
Дякую за вечір з "Металістом"

misamisk 
Поважний учасник


З нами з: 16.10.17
Востаннє: 25.02.21
Повідомлень: 154

2021-01-22 19:43  
601сан
На жаль,, поки що релізів інших ретро матчів не передбачиться, принаймні я їх не бачив у програмі "Футбола 3"

Wrestling Ukraine 
Свій


З нами з: 10.09.17
Востаннє: 24.02.21
Повідомлень: 126

2021-01-22 22:56  
misamisk написано:
я їх не бачив у програмі "Футбола 3"


Неділя

11:25 Металіст - Ред Булл Зальцбург. Ліга Європи. Сезон 2011/2012. 1/16 фіналу.

misamisk 
Поважний учасник


З нами з: 16.10.17
Востаннє: 25.02.21
Повідомлень: 154

2021-01-23 08:40  
Wrestling Ukraine
Точно, я як завжди неуважний. Happy Дякую!
Та і на неділю я, здається, ще у програму не заглядав

[email protected] 
Новенький


З нами з: 14.06.17
Востаннє: 25.02.21
Повідомлень: 14

2021-01-27 15:36  
misamisk
давай роздавай а то я чекаю, в тебе пише що з 15.00 а зараз 15.35

misamisk 
Поважний учасник


З нами з: 16.10.17
Востаннє: 25.02.21
Повідомлень: 154

2021-01-27 20:08  
[email protected]
Ви б краще рейтинг свій підняли, а то з 0.01 далеко не підеш

Ваш часовий пояс: GMT + 2 Години

Нова тема   Відповісти