Зоряні Війни: Війни клонів (Сезон 5) / Star Wars: The Clone Wars (Season 5) (2012) 1080p Ukr/Eng

Нові коментарі

Нова тема   Відповісти
Автор Повідомлення
Anaive 
VIP


З нами з: 07.06.11
Востаннє: 16.04.21
Повідомлень: 371

2021-01-20 22:24  
Зоряні Війни: Війни клонів (Сезон 5) / Star Wars: The Clone Wars (Season 5) (2012) 1080p Ukr/Eng

Зоряні Війни: Війни клонів (Сезон 5) / Star Wars: The Clone Wars (Season 5) (2012) 1080p Ukr/Eng


Жанр: анімація, пригодницький, сімейний, фантастика
Країна: США



Кінокомпанія: CGCG, Lucasfilm
Режисер: Дейв Філоні
Актори: Кетрін Табе, Метт Лентер, Ешлі Екстайн, Том Кейн, Метью Вуд

Сюжет:
Дія у мультсеріалі розгортаються на часовому проміжку між другим та третім епізодами фільму "Зоряні Війни". Кожна серія описує невеликий період Війн Клонів. На передових позиціях міжгалактичної війни Добра і Зла знову Енакін Скайуокер, Обі-Ван Кенобі, Падме Амідала, а також падаван Енакіна - Асока, з іншого боку їм протистоять Палпалатін, граф Дуку, генерал Грівус і багато їхніх спільників.


Тривалість: 1 серія ~22 хвилини (цілком серій: 20)
Перелік серій
1. Revival
2. A War on Two Fronts
3. Front Runners
4. The Soft War
5. Tipping Points
6. The Gathering
7. A Test of Strength
8. Bound for Rescue
9. A Necessary Bond
10. Secret Weapons
11. A Sunny Day in the Void
12. Missing in Action
13. Point of No Return
14. Eminence
15. Shades of Reason
16. The Lawless
17. Sabotage
18. The Jedi Who Knew Too Much
19. To Catch a Jedi
20. The Wrong Jedi
Якість:
Контейнер:

Відео:
кодек:
розмір кадру: 1920 х 816
бітрейт: 5 412кб/с

Аудіо #1:
мова: українська
переклад: багатоголосий закадровий (1-8, 12-20 КуйТБ; 9-11 В одне рило)
кодек: 2.0
бітрейт: 192 кб/с

Аудіо #2:
мова: англійська
переклад: оригінал
кодек:
бітрейт: 1 509 кб/с

Субтитри #1:
мова: англійська
тип: програмні (м'які)
формат: *.srt

Субтитри #2:
мова: українська (9-11, 16)
тип: програмні (м'які)
формат: *.srt
Info
General
Unique ID : 86557146708912512004097052214948325203 (0x411E4CD1B2C088FDC05E1DBF3A38E753)
Complete name : D:\Video\Star.Wars.The.Clone.Wars.S05.1080p.BluRay (КуйТБ, В одне рило)\Star.Wars.The.Clone.Wars.S05E16.1080p.BluRay.
Format :
Format version : Version 4
File size : 1.12 GiB
Duration : 22 min 40 s
Overall bit rate : 7 079 kb/s
Encoded date : UTC 2021-01-20 19:40:19
Writing application : v41.0.0 ('Smarra') 64-bit
Writing library : libebml v1.3.9 + v1.5.2

Video
ID : 1
Format : AVC
Format/Info : Advanced Video Codec
Format profile : [email protected]
Format settings : CABAC / 4 Ref Frames
Format settings, CABAC : Yes
Format settings, Reference frames : 4 frames
Codec ID : V_MPEG4/ISO/AVC
Duration : 22 min 40 s
Bit rate : 5 379 kb/s
Width : 1 920 pixels
Height : 816 pixels
Display aspect ratio : 2.35:1
Frame rate mode : Constant
Frame rate : 23.976 (24000/1001) FPS
Color space : YUV
Chroma subsampling : 4:2:0
Bit depth : 8 bits
Scan type : Progressive
Bits/(Pixel*Frame) : 0.143
Stream size : 872 MiB (76%)
Writing library : core 138 r2358 9e941d1
Encoding settings : cabac=1 / ref=4 / deblock=1:0:0 / analyse=0x3:0x133 / me=umh / subme=7 / psy=1 / psy_rd=1.00:0.00 / mixed_ref=1 / me_range=16 / chroma_me=1 / trellis=1 / 8x8dct=1 / cqm=0 / deadzone=21,11 / fast_pskip=0 / chroma_qp_offset=-2 / threads=18 / lookahead_threads=3 / sliced_threads=0 / nr=0 / decimate=1 / interlaced=0 / bluray_compat=0 / constrained_intra=0 / bframes=3 / b_pyramid=2 / b_adapt=1 / b_bias=0 / direct=3 / weightb=1 / open_gop=0 / weightp=2 / keyint=250 / keyint_min=23 / scenecut=40 / intra_refresh=0 / rc_lookahead=40 / rc=2pass / mbtree=1 / bitrate=5379 / ratetol=1.0 / qcomp=0.60 / qpmin=0 / qpmax=69 / qpstep=4 / cplxblur=20.0 / qblur=0.5 / ip_ratio=1.40 / aq=1:1.00
Default : Yes
Forced : No

Audio #1
ID : 2
Format : AC-3
Format/Info : Audio Coding 3
Commercial name : Dolby Digital
Codec ID : A_AC3
Duration : 22 min 38 s
Bit rate mode : Constant
Bit rate : 192 kb/s
Channel(s) : 2 channels
Channel layout : L R
Sampling rate : 48.0 kHz
Frame rate : 31.250 FPS (1536 SPF)
Compression mode : Lossy
Delay relative to video : 1 s 0 ms
Stream size : 31.1 MiB (3%)
Title : Закадровий КуйТБ & В одне рило
Language : Ukrainian
Service kind : Complete Main
Default : Yes
Forced : No

Audio #2
ID : 3
Format :
Format/Info : Digital Theater Systems
Codec ID : A_DTS
Duration : 22 min 40 s
Bit rate mode : Constant
Bit rate : 1 509 kb/s
Channel(s) : 6 channels
Channel layout : C L R Ls Rs LFE
Sampling rate : 48.0 kHz
Frame rate : 93.750 FPS (512 SPF)
Bit depth : 24 bits
Compression mode : Lossy
Stream size : 245 MiB (21%)
Language : English
Default : No
Forced : No

Text #1
ID : 4
Format : UTF-8
Codec ID : S_TEXT/UTF8
Codec ID/Info : UTF-8 Plain Text
Duration : 21 min 51 s
Bit rate : 62 b/s
Count of elements : 218
Stream size : 9.99 KiB (0%)
Language : Ukrainian
Default : No
Forced : No

Text #2
ID : 5
Format : UTF-8
Codec ID : S_TEXT/UTF8
Codec ID/Info : UTF-8 Plain Text
Duration : 21 min 33 s
Bit rate : 37 b/s
Count of elements : 220
Stream size : 5.90 KiB (0%)
Language : English
Default : No
Forced : No
Cкріншоти


Додаткова інформація
Цитата:
16 серія - озвучено В одне рило (05:50 - 13:08) (субтитри українською в роздачі, перекладена вся серія - ХевіЮА)
20 серія - озвучено інтро В одне рило (субтитри українською відсутні)

Джерело озвучення: КуйТБ (1-8, 12-20), В одне рило (Енейв, В одне рило, Artymko) (9-11)
Переклад: ХевіЮА (9-11, 16)
9-11, 16 серії озвучено на замовлення UASerials

Особиста оцінка: 10 - без зайвих вагань рекомендую всім!


Авторський реліз (завантажувати можна без реєстрації)
 Трекер:    Зареєстрований   

Завантажити / скачати мультфільм українською



відео для новачків



 Зареєстрований:   2021-01-25 09:14
 Розмір:   22.42 GB 
 Оцінка мультсеріалу:   10/10 (Голосів: 5)
   
bot 
робот


З нами з: 30.09.07
Востаннє: 26.05.05
Повідомлень: 27902

2021-01-20 22:24  
Тему перенесено з Мультсеріали в HD до форуму Анонси релізів


Anaive

Masanchick 
VIP


З нами з: 08.04.11
Востаннє: 17.04.21
Повідомлень: 1646

2021-01-20 22:44  
Весь сезон від вас чи тільки пропущені серії в озвучці від КуйТб?
Anaive 
VIP


З нами з: 07.06.11
Востаннє: 16.04.21
Повідомлень: 371

2021-01-20 22:45  
носінг ту сей
жаст вейт

Додано через 12 секунд:

Masanchick
тільки пропущені

Додано через 1 хвилину 18 секунд:

Така собі "солянка", але краще ніж без озвучки

Masanchick 
VIP


З нами з: 08.04.11
Востаннє: 17.04.21
Повідомлень: 1646

2021-01-20 22:48  
Anaive
а цю не поправляли ?
Цитата:
20 серія - лише англійською девіз серії і "в попередніх серіях"

Anaive 
VIP


З нами з: 07.06.11
Востаннє: 16.04.21
Повідомлень: 371

2021-01-20 22:51  
Masanchick
поправимо, мабуть
Спершу треба завершити основні 9-11

Anaive 
VIP


З нами з: 07.06.11
Востаннє: 16.04.21
Повідомлень: 371

2021-01-23 20:05  
Masanchick
так, 20 також "дописали"

bot 
робот


З нами з: 30.09.07
Востаннє: 26.05.05
Повідомлень: 27902

2021-01-25 09:13  
Тему перенесено з Анонси релізів до форуму Мультсеріали в HD


Anaive

Anaive 
VIP


З нами з: 07.06.11
Востаннє: 16.04.21
Повідомлень: 371

2021-01-25 09:17  
Завершили
Ваш часовий пояс: GMT + 2 Години

Нова тема   Відповісти