Світляк (Сезон 1) / Firefly (Season 1) (2002) 1080p 2xUkr/Eng Sub Eng

Нові коментарі

Нова тема   Відповісти
Автор Повідомлення
Argentum 
VIP


З нами з: 25.09.11
Востаннє: 07.03.21
Повідомлень: 285

2021-01-20 19:32  
Світляк (Сезон 1) / Firefly (Season 1) (2002) 1080p 2xUkr/Eng Sub Eng

Світляк (Сезон 1) / Firefly (Season 1) (2002) 1080p 2xUkr/Eng Sub Eng


Жанр: пригодницький, драма, фантастика, космічний вестерн
Країна: США



Кінокомпанія: FOX
Режисер: Джосс Відон
Актори: Натан Філліон, Джина Торрес, Алан Тьюдік, Морена Баккарін, Адам Болдуін, Джуел Стейт, Шон Махер, Саммер Глау, Рон Гласс та інші.

Сюжет:
Події відбуваються в 2517 році, після переселення людства в нову зоряну систему, і розповідають про пригоди групи контрабандистів, екіпажу «Сереніті» — міжпланетного корабля класу «світляк».
За сюжетом в майбутньому дві супердержави, прообразами яких є США та Китай, об'єдналися в єдиний федеральний уряд під назвою Альянс. У результаті західна та далекосхідна культури були злиті разом. Незважаючи на плин часу, деякі речі не змінюються: людей більше, технології кращі, але політичні, моральні та етичні проблеми все ще існують


Тривалість: 1 серія: ~ 43:00 (цілком серій: 14)
Перелік серій
1x01. Serenity
1x02. The Train Job
1x03. Bushwhacked
1x04. Shindig
1x05. Safe
1x06. Our Mrs. Reynolds
1x07. Jaynestown
1x08. Out of Gas
1x09. Ariel
1x10. War Stories
1x11. Trash
1x12. The Message
1x13. Heart of Gold
1x14. Objects in Space
Якість:
Відео:
кодек:
розмір кадру: 1920 х 1080
бітрейт: 12.7 - 13.2 Mб/с

Аудіо # 1:
мова: українська
переклад: багатоголосий закадровий | HDRezka (DniproFilm)
кодек: 5.1
бітрейт: 384 кб/с

Аудіо # 2:
мова: українська
переклад: двоголосий закадровий | Три Крапки
кодек: 2.0
бітрейт: 192 кб/с

Аудіо # 3:
мова: англійська
переклад: оригінал
кодек: 5.1
бітрейт: 640 кб/с

Субтитри: (форсовані)
мова: українська
тип: програмні (м'які)
формат: *.srt

Субтитри:
мова: англійська
тип: програмні (м'які)
формат: *.srt
Info
General
Unique ID : 26068039961377885388158095325075786786 (0x139C85999ECD5CF5E31413BD5F7ACC22)
Complete name : Firefly.S01E03..1080p.Ukr.Eng.Hurtom.
Format :
Format version : Version 4
File size : 4.28 GiB
Duration : 43 min 54 s
Overall bit rate : 14.0 Mb/s
Movie name : 1x03. Bushwhacked
Encoded date : UTC 2021-01-20 14:02:19
Writing application : v52.0.0 ('Secret For The Mad') 64-bit
Writing library : libebml v1.4.1 + v1.6.2

Video
ID : 1
Format : AVC
Format/Info : Advanced Video Codec
Format profile : [email protected]
Format settings : CABAC / 4 Ref Frames
Format settings, CABAC : Yes
Format settings, Reference : 4 frames
Codec ID : V_MPEG4/ISO/AVC
Duration : 43 min 54 s
Bit rate : 12.7 Mb/s
Width : 1 920 pixels
Height : 1 080 pixels
Display aspect ratio : 16:9
Frame rate mode : Constant
Frame rate : 23.976 (24000/1001) FPS
Color space : YUV
Chroma subsampling : 4:2:0
Bit depth : 8 bits
Scan type : Progressive
Bits/(Pixel*Frame) : 0.256
Stream size : 3.91 GiB (91%)
Title : AVC 1920*1080 @ 12.7 Mb/s
Writing library : core 65 r1057M 5f8a149
Encoding settings : cabac=1 / ref=4 / deblock=1:-2:-2 / analyse=0x3:0x113 / me=umh / subme=9 / psy_rd=1.0:0.0 / mixed_ref=1 / me_range=32 / chroma_me=1 / trellis=2 / 8x8dct=1 / cqm=0 / deadzone=21,11 / chroma_qp_offset=-2 / threads=12 / nr=0 / decimate=0 / mbaff=0 / bframes=4 / b_pyramid=0 / b_adapt=2 / b_bias=0 / direct=3 / wpredb=1 / keyint=250 / keyint_min=25 / scenecut=40(pre) / rc=2pass / bitrate=12740 / ratetol=1.0 / qcomp=0.60 / qpmin=10 / qpmax=51 / qpstep=4 / cplxblur=20.0 / qblur=0.5 / vbv_maxrate=50000 / vbv_bufsize=50000 / ip_ratio=1.40 / pb_ratio=1.30 / aq=1:1.10
Language : English
Default : Yes
Forced : Yes

Audio #1
ID : 2
Format : AC-3
Format/Info : Audio Coding 3
Commercial name : Dolby Digital
Codec ID : A_AC3
Duration : 43 min 54 s
Bit rate mode : Constant
Bit rate : 384 kb/s
Channel(s) : 6 channels
Channel layout : L R C LFE Ls Rs
Sampling rate : 48.0 kHz
Frame rate : 31.250 FPS (1536 SPF)
Compression mode : Lossy
Delay relative to video : 24 ms
Stream size : 121 MiB (3%)
Title : AC-3 5.1 @ 384 kb/s # DniproFilm
Language : Ukrainian
Service kind : Complete Main
Default : Yes
Forced : Yes

Audio #2
ID : 3
Format : AC-3
Format/Info : Audio Coding 3
Commercial name : Dolby Digital
Codec ID : A_AC3
Duration : 43 min 54 s
Bit rate mode : Constant
Bit rate : 192 kb/s
Channel(s) : 2 channels
Channel layout : L R
Sampling rate : 44.1 kHz
Frame rate : 28.711 FPS (1536 SPF)
Compression mode : Lossy
Stream size : 60.3 MiB (1%)
Title : AC-3 2.0 @ 192 kb/s # TryKrapky
Language : Ukrainian
Service kind : Complete Main
Default : No
Forced : No

Audio #3
ID : 4
Format : AC-3
Format/Info : Audio Coding 3
Commercial name : Dolby Digital
Codec ID : A_AC3
Duration : 43 min 54 s
Bit rate mode : Constant
Bit rate : 640 kb/s
Channel(s) : 6 channels
Channel layout : L R C LFE Ls Rs
Sampling rate : 48.0 kHz
Frame rate : 31.250 FPS (1536 SPF)
Compression mode : Lossy
Stream size : 201 MiB (5%)
Title : AC-3 5.1 @ 640 kb/s
Language : English
Service kind : Complete Main
Default : No
Forced : No

Text #1
ID : 5
Format : UTF-8
Codec ID : S_TEXT/UTF8
Codec ID/Info : UTF-8 Plain Text
Duration : 40 min 10 s
Bit rate : 1 b/s
Count of elements : 12
Stream size : 345 Bytes (0%)
Title : Forced
Language : Ukrainian
Default : Yes
Forced : Yes

Text #2
ID : 6
Format : UTF-8
Codec ID : S_TEXT/UTF8
Codec ID/Info : UTF-8 Plain Text
Duration : 42 min 54 s
Bit rate : 61 b/s
Count of elements : 507
Stream size : 19.4 KiB (0%)
Title : Full
Language : English
Default : No
Forced : No
Скріншоти









Джерело:
Особиста оцінка: 8 - мені сподобалося





Авторський реліз (завантажувати можна без реєстрації)
 Трекер:    Зареєстрований   

Завантажити / скачати серіал українською



відео для новачків



 Зареєстрований:   2021-01-20 20:27
 Розмір:   64.22 GB 
 Оцінка серіалу:   10/10 (Голосів: 10)
   
leicheman 
Відео Гуртом - фільмокрай
Відео Гуртом - фільмокрай


З нами з: 03.07.14
Востаннє: 07.03.21
Повідомлень: 5957

2021-01-20 21:05  
Дуже шкода, що не продовжили серіал =(
Lil`Antoni 
VIP


З нами з: 25.02.12
Востаннє: 07.03.21
Повідомлень: 890

2021-01-25 11:21  
Може ще перезапустять,але шанс дуже малий. Sad (1)
Kovex 
VIP


З нами з: 01.09.09
Востаннє: 04.03.21
Повідомлень: 501

2021-01-30 02:04  
Дякую за реліз. Непевне найулюбленіше мною зняте про космічну фантастику. Раджу всім. Було б бомбезно, як би продовжили, але я дуже в цьому сумніваюся...
General Franko-Safon 
VIP


З нами з: 03.07.20
Востаннє: 07.03.21
Повідомлень: 284

2021-01-30 02:36  
Lil`Antoni
Kovex
Можливість цього, насправді, дуже велика, адже зараз перезнімають/перезапускають взагалі усе, навіть всіма забуте і незначне.

Neytreenor 
Відео Гуртом - запис з ТБ
Відео Гуртом - запис з ТБ


З нами з: 03.04.11
Востаннє: 07.03.21
Повідомлень: 3117

2021-02-27 10:34  
А класне вийшло озвучення Happy. Із задоволенням передивився серіал.
Ваш часовий пояс: GMT + 2 Години

Нова тема   Відповісти