Готель Едельвейс (2019) 1080p

Нові коментарі

Нова тема   Відповісти
Автор Повідомлення
Anonymous 







2021-01-18 23:41  
Готель Едельвейс (2019) 1080p

Готель Едельвейс (2019) 1080p


Жанр: комедія
Країна: Україна



Кінокомпанія: Content Film Group
Режисер: Юрій Рудий
Актори: Сергій Комаровський, Василь Вірастюк, Анна Кузіна, Наталя Васько, Артемій Єгоров

Сюжет:
Хитрий і цілеспрямований олігарх оселяється в готелі на околиці міста, щоб за короткий час завоювати прихильність дочки власника готелю. Його мета — отримати доступ до золотого родовища, що знаходиться на цій землі. Але зробити це виявляється не так просто: дівчина таємно заручена, про золото знають інші аферисти, а на шляху до мільйонів стає кохання…


Тривалість: 01:27:16
Якість:
Відео: [Частково кацапський відеоряд]
кодек:
розмір кадру: 1920 х 796
бітрейт: 5106 кб/с

Аудіо:
мова: українська
переклад: оригінал
кодек: 2.0
бітрейт: 128 кб/с
Info
Код:
General
Unique ID                                : 58659669454626402078503898491403727245 (0x2C2170FF2293FE7DFC0E6B1510B1718D)
Complete name                            : Готель Едельвейс (2019) 1080p [Ukr] [Hurtom].
Format                                   :
Format version                           : Version 4
File size                                : 3.19 GiB
Duration                                 : 1 h 27 min
Overall bit rate                         : 5 237 kb/s
Movie name                               : Готель Едельвейс (2019)
Encoded date                             : UTC 2021-01-18 20:58:33
Writing application                      : v52.0.0 ('Secret For The Mad') 64-bit
Writing library                          : libebml v1.4.1 + v1.6.2
Cover                                    : Yes
Attachments                              : cover.jpg

Video
ID                                       : 1
Format                                   : AVC
Format/Info                              : Advanced Video Codec
Format profile                           : [email protected]
Format settings                          : CABAC / 4 Ref Frames
Format settings, CABAC                   : Yes
Format settings, Reference frames        : 4 frames
Codec ID                                 : V_MPEG4/ISO/AVC
Duration                                 : 1 h 27 min
Bit rate                                 : 5 106 kb/s
Width                                    : 1 920 pixels
Height                                   : 796 pixels
Display aspect ratio                     : 2.40:1
Frame rate mode                          : Constant
Frame rate                               : 24.000 FPS
Color space                              : YUV
Chroma subsampling                       : 4:2:0
Bit depth                                : 8 bits
Scan type                                : Progressive
Bits/(Pixel*Frame)                       : 0.139
Stream size                              : 3.11 GiB (97%)
Default                                  : Yes
Forced                                   : No

Audio
ID                                       : 2
Format                                   : LC
Format/Info                              : Advanced Audio Codec Low Complexity
Codec ID                                 : A_AAC-2
Duration                                 : 1 h 27 min
Bit rate                                 : 128 kb/s
Channel(s)                               : 2 channels
Channel layout                           : L R
Sampling rate                            : 48.0 kHz
Frame rate                               : 46.875 FPS (1024 SPF)
Compression mode                         : Lossy
Stream size                              : 80.2 MiB (2%)
Language                                 : Ukrainian
Default                                  : Yes
Forced                                   : Yes

Скріншоти





Джерело:


Золотий реліз (завантажене не впливає на рейтинг)
 Трекер:    Зареєстрований   

Завантажити / скачати український фільм



відео для новачків



 Зареєстрований:   2021-01-18 23:41
 Розмір:   3.19 GB 
 Оцінка фільму:   5.9/10 (Голосів: 10)
   
Anonymous 







2021-01-18 23:45  
Цитата:
[Частково кацапський відеоряд]

початкові титри/назва/актори - кацапською
далі у фільмі назви/імена/кінцеві титри - українською
див. скріншоти

Lubomyr 
Частий відвідувач


З нами з: 11.01.10
Востаннє: 01.03.21
Повідомлень: 39

2021-01-22 21:17  
Примітив ще той.
wuzicka 
Свій


З нами з: 08.03.10
Востаннє: 01.03.21
Повідомлень: 104

2021-01-28 22:58  
прохідне кіно
kozzlomordus 
Забанено
Забанено


З нами з: 11.05.11
Востаннє: 26.02.21
Повідомлень: 3

2021-02-26 18:25  
Частково кацапський відеоряд
а частково хохляндський



п.2.6, видано igor911
Ваш часовий пояс: GMT + 2 Години

Нова тема   Відповісти