Мис страху / Cape Fear (1991) AVC 3xUkr/Eng | Sub Eng

Нові коментарі

Нова тема   Відповісти
Автор Повідомлення
Arsenfpu 
Відео Гуртом - фільмокрай
Відео Гуртом - фільмокрай


З нами з: 30.04.09
Востаннє: 02.03.21
Повідомлень: 7940

2021-01-17 18:05  
Мис страху / Cape Fear (1991) AVC 3xUkr/Eng | Sub Eng

Мис страху / Cape Fear (1991) AVC 3xUkr/Eng | Sub Eng


Жанр: кримінальний, трилер
Країна: США



Кінокомпанія: Amblin Entertainment, Cappa Films, Tribeca Productions
Режисер: Мартін Скорсезе
Актори: Роберт Де Ніро, Нік Нолті, Джессіка Ланж, Джульєтт Льюїс, Джо Дон Бейкер, Роберт Мітчум, Ґреґорі Пек

Сюжет:
Кримінальник Макс Кейді виходить з в'язниці, відсидівши тривалий термін за зґвалтування. Його серце переповнене злості та ненависті. Тоді, чотирнадцять років тому, його адвокатом у суді був Сем Боуден. У нього в руках була важлива інформація, яка, можливо, могла виправдати Макса. Але Сем приховав її, і його клієнт отримав суворий вирок. Макс нічого не забув, всі ці роки він виношував план помсти. І тепер має намір відшукати Боудена і дати хороший урок йому, його дружині та 15-річній дочці.


Тривалість: 02:07:45
Якість:
Відео:
кодек:
розмір кадру: 1 024 х 432
бітрейт: 1 799 кб/с

Аудіо # 1:
мова: українська
переклад: двоголосий закадровий
кодек: 5.1
бітрейт: 448 кб/с

Аудіо # 2:
мова: українська
переклад: багатоголосий закадровий
кодек: 2.0
бітрейт: 192 кб/с

Аудіо # 3:
мова: українська
переклад: двоголосий закадровий
кодек: 2.0
бітрейт: 192 кб/с
примітка: бажано мати кращий запис

Аудіо # 4:
мова: англійська
переклад: оригінал
кодек: 2.0
бітрейт: 192 кб/с

Субтитри:
мова: англійська
тип: програмні (м'які)
формат: *.srt
Скріншоти














Про файл
General
Unique ID : 247655541520921139830434726452090670737 (0xBA50B8EAACD353D9FD6717FEF76C8E91)
Complete name : D:\Cape Fear (1991) [3xUkr,Eng] AVC [Hurtom].
Format :
Format version : Version 4
File size : 2.52 GiB
Duration : 2 h 7 min
Overall bit rate : 2 825 kb/s
Movie name : Мис страху / Cape Fear (1991)
Encoded date : UTC 2021-02-23 21:03:55
Writing application : v53.0.0 ('Fool's Gold') 64-bit
Writing library : libebml v1.4.1 + v1.6.2
Cover : Yes
Attachments : cover.jpg

Video
ID : 1
Format : AVC
Format/Info : Advanced Video Codec
Format profile : [email protected]
Format settings : CABAC / 8 Ref Frames
Format settings, CABAC : Yes
Format settings, Reference : 8 frames
Codec ID : V_MPEG4/ISO/AVC
Duration : 2 h 7 min
Bit rate : 1 799 kb/s
Width : 1 024 pixels
Height : 432 pixels
Display aspect ratio : 2.40:1
Frame rate mode : Constant
Frame rate : 23.976 (24000/1001) FPS
Color space : YUV
Chroma subsampling : 4:2:0
Bit depth : 8 bits
Scan type : Progressive
Bits/(Pixel*Frame) : 0.170
Stream size : 1.60 GiB (64%)
Writing library : core 157 r2969 d4099dd
Encoding settings : cabac=1 / ref=8 / deblock=1:-1:-1 / analyse=0x3:0x133 / me=umh / subme=10 / psy=1 / psy_rd=1.00:0.15 / mixed_ref=1 / me_range=32 / chroma_me=1 / trellis=2 / 8x8dct=1 / cqm=0 / deadzone=21,11 / fast_pskip=0 / chroma_qp_offset=-3 / threads=13 / lookahead_threads=1 / sliced_threads=0 / nr=0 / decimate=1 / interlaced=0 / bluray_compat=0 / constrained_intra=0 / bframes=3 / b_pyramid=2 / b_adapt=2 / b_bias=0 / direct=3 / weightb=1 / open_gop=0 / weightp=2 / keyint=240 / keyint_min=23 / scenecut=40 / intra_refresh=0 / rc_lookahead=60 / rc=2pass / mbtree=1 / bitrate=1799 / ratetol=1.0 / qcomp=0.60 / qpmin=0 / qpmax=69 / qpstep=4 / cplxblur=20.0 / qblur=0.5 / vbv_maxrate=31250 / vbv_bufsize=31250 / nal_hrd=none / filler=0 / ip_ratio=1.40 / aq=1:1.00
Default : Yes
Forced : No

Audio #1
ID : 2
Format : AC-3
Format/Info : Audio Coding 3
Commercial name : Dolby Digital
Codec ID : A_AC3
Duration : 2 h 7 min
Bit rate mode : Constant
Bit rate : 448 kb/s
Channel(s) : 6 channels
Channel layout : L R C LFE Ls Rs
Sampling rate : 48.0 kHz
Frame rate : 31.250 FPS (1536 SPF)
Compression mode : Lossy
Stream size : 409 MiB (16%)
Title : Новий
Language : Ukrainian
Service kind : Complete Main
Default : Yes
Forced : Yes

Audio #2
ID : 3
Format : AC-3
Format/Info : Audio Coding 3
Commercial name : Dolby Digital
Codec ID : A_AC3
Duration : 2 h 7 min
Bit rate mode : Constant
Bit rate : 192 kb/s
Channel(s) : 2 channels
Channel layout : L R
Sampling rate : 48.0 kHz
Frame rate : 31.250 FPS (1536 SPF)
Compression mode : Lossy
Stream size : 175 MiB (7%)
Title : Cine+
Language : Ukrainian
Service kind : Complete Main
Default : No
Forced : No

Audio #3
ID : 4
Format : AC-3
Format/Info : Audio Coding 3
Commercial name : Dolby Digital
Codec ID : A_AC3
Duration : 2 h 7 min
Bit rate mode : Constant
Bit rate : 192 kb/s
Channel(s) : 2 channels
Channel layout : L R
Sampling rate : 48.0 kHz
Frame rate : 31.250 FPS (1536 SPF)
Compression mode : Lossy
Stream size : 175 MiB (7%)
Title : НЛО
Language : Ukrainian
Service kind : Complete Main
Default : No
Forced : No

Audio #4
ID : 5
Format : AC-3
Format/Info : Audio Coding 3
Commercial name : Dolby Digital
Codec ID : A_AC3
Duration : 2 h 7 min
Bit rate mode : Constant
Bit rate : 192 kb/s
Channel(s) : 2 channels
Channel layout : L R
Sampling rate : 48.0 kHz
Frame rate : 31.250 FPS (1536 SPF)
Compression mode : Lossy
Stream size : 175 MiB (7%)
Language : English
Service kind : Complete Main
Default : No
Forced : No

Text
ID : 6
Format : UTF-8
Codec ID : S_TEXT/UTF8
Codec ID/Info : UTF-8 Plain Text
Duration : 2 h 4 min
Bit rate : 70 b/s
Count of elements : 2009
Stream size : 64.1 KiB (0%)
Language : English
Default : Yes
Forced : No
Джерело:
За доріжки від Нового та НЛО дякую п. ratbol, Technomate
Особиста оцінка: не дивився


Срібний реліз (на рейтинг впливає 50% завантаженого)
 Трекер:    Зареєстрований   

Завантажити / скачати фільм українською



відео для новачків



 Зареєстрований:   2021-02-23 23:18
 Розмір:   2.52 GB 
 Оцінка фільму:   8.4/10 (Голосів: 12)
   
Інші релізи
taraskill1 
Відео Гуртом - фільмокрай
Відео Гуртом - фільмокрай


З нами з: 21.01.12
Востаннє: 02.03.21
Повідомлень: 1314

2021-01-18 09:12  
Цитата:
Аудіо # 2:
мова: українська
переклад: двоголосий закадровий (з 5.1)

в попередньому релізі було щире 5.1, дарма перекодували

kinaxem 
Відео Гуртом - фільмокрай
Відео Гуртом - фільмокрай


З нами з: 21.12.16
Востаннє: 02.03.21
Повідомлень: 568

2021-01-18 09:16  
taraskill1 написано:
в попередньому релізі було щире 5.1, дарма перекодували

Так, прохання додати 5.1

Arsenfpu 
Відео Гуртом - фільмокрай
Відео Гуртом - фільмокрай


З нами з: 30.04.09
Востаннє: 02.03.21
Повідомлень: 7940

2021-01-18 09:44  
kinaxem
По часу не підходить.

Додано через 20 хвилин 35 секунд:

tilda4334
Я про це джерело - https://toloka.to/t42964

clavaykraini 
Свій


З нами з: 16.05.14
Востаннє: 02.03.21
Повідомлень: 132

2021-01-20 07:25  
Arsenfpu написано:
kinaxem По часу не підходить.
Цитата:
переклад: двоголосий закадровий (з 5.1)
то 2.0 по часу підходить, а 5.1 не підходить?
Arsenfpu 
Відео Гуртом - фільмокрай
Відео Гуртом - фільмокрай


З нами з: 30.04.09
Востаннє: 02.03.21
Повідомлень: 7940

2021-01-20 07:28  
clavaykraini
Так

qwerjar 
Поважний учасник


З нами з: 09.07.10
Востаннє: 02.03.21
Повідомлень: 162

2021-01-29 02:45  
clavaykraini написано:
то 2.0 по часу підходить, а 5.1 не підходить?

Arsenfpu написано:
Так


Іншими словами: я не хочу Tongue up (1)

Arsenfpu 
Відео Гуртом - фільмокрай
Відео Гуртом - фільмокрай


З нами з: 30.04.09
Востаннє: 02.03.21
Повідомлень: 7940

2021-02-23 23:19  
Реліз оновлено!
Замінено відео та доріжку від Нового.

bahtin 
VIP


З нами з: 17.11.07
Востаннє: 02.03.21
Повідомлень: 335

2021-02-26 13:15  
Поставив 2 бали. Бо наче не написано, що це чорна комедія. Ну як можна ставитись до фільма про маньяка та сімейку ідіотів? Не хочу розкривати зміст фільму, але можна навести десятки моментів, які можна віднести до чорної комедії.
merime 
Свій


З нами з: 14.02.12
Востаннє: 28.02.21
Повідомлень: 101

2021-02-27 20:20  
Рімейк однойменного фільму 1962 року з Ґреґорі Пеком. Як на мене, оригінал краще.
Ваш часовий пояс: GMT + 2 Години

Нова тема   Відповісти