Аліса в Ігрокраї (сезон 1) / 今際の国のアリス (Imawa no kuni no Arisu) / Alice in Borderland (2020) 720p Ukr/Jap | Sub Ukr/Jap

Нові коментарі

Нова тема   Відповісти
Автор Повідомлення
ArtymKo 
Свій


З нами з: 14.01.20
Востаннє: 28.02.21
Повідомлень: 92

2021-01-17 17:04  
Аліса в Ігрокраї (сезон 1) / 今際の国のアリス (Imawa no kuni no Arisu) / Alice in Borderland (2020) 720p Ukr/Jap | Sub Ukr/Jap

Аліса в Ігрокраї (сезон 1) / 今際の国のアリス (Imawa no kuni no Arisu) / Alice in Borderland (2020) 720p Ukr/Jap | Sub Ukr/Jap


Жанр: екшн, трилер, фантастика
Країна: Японія


Кінокомпанія / телеканал: Robot Communications Inc.
Режисер: Шінсуке Сато (Shinsuke Sato)
Актори/ролі озвучують: Кенто Ямадзакі (Kento Yamazaki), Тао Цучія (Tao Tsuchiya), Ніджіро Муракамі (Nijirō Murakami)
Вікова категорія: 16+

Сюжет:
Рьогей Арісу – бездушний, безробітний і одержимий відеоіграми юнак – раптом опиняється в дивній, безлюдній версії Токіо, в якій він та його друзі мають змагатися в небезпечних іграх на виживання. У цьому дивному світі Арісу зустрічає дівчину Усаґі, що любить самітну гру. Разом вони намагаються розгадати таємниці гри, ризикуючи своїм життям.


Трейлер українською
Перелік серій
1. Episode 1
2. Episode 2
3. Episode 3
4. Episode 4
5. Episode 5
6. Episode 6
7. Episode 7
8. Episode 8
Тривалість: Одна серія: 40 – 50 хв. (цілком серій: 8)
Якість:
Відео:
кодек:
розмір кадру: 1280 х 720
бітрейт: 3155 кб/с

Аудіо # 1:
мова: українська
переклад: двоголосий закадровий (ArtymKo)
кодек: 5.1
бітрейт: 640 кб/с

Аудіо # 2:
мова: японська
переклад: оригінал
кодек: EAC3 5.1
бітрейт: 640 кб/с

Субтитри # 1:
мова: українська (написи)
тип: програмні (м'які)
формат: *.

Субтитри # 2:
мова: українська (повні)
тип: програмні (м'які)
формат: *.

Субтитри # 3:
мова: японська
тип: програмні (м'які)
формат: *.
Info
General
Unique ID : 167616771020977200215714373137385368739 (0x7E19D0DB7C3C7F9B0D79A1B135EBACA3)
Complete name : F:\Videos\Alice in Borderland\Alice in Borderland S1 (2020) 720p [ArtymKo]\Alice in Borderland S1 E1 (2020) 720p [ArtymKo].
Format :
Format version : Version 4
File size : 1.50 GiB
Duration : 48 min 32 s
Overall bit rate mode : Variable
Overall bit rate : 4 436 kb/s
Movie name : Alice in Borderland S1 E1 (2020) 720p [ArtymKo]
Encoded date : UTC 2021-01-17 14:01:32
Writing application : v52.0.0 ('Secret For The Mad') 64-bit
Writing library : libebml v1.4.1 + v1.6.2

Video
ID : 1
Format : AVC
Format/Info : Advanced Video Codec
Format profile : [email protected]
Format settings : CABAC / 3 Ref Frames
Format settings, CABAC : Yes
Format settings, Reference : 3 frames
Codec ID : V_MPEG4/ISO/AVC
Duration : 48 min 31 s
Bit rate mode : Variable
Bit rate : 3 155 kb/s
Nominal bit rate : 3 320 kb/s
Maximum bit rate : 4 980 kb/s
Width : 1 280 pixels
Height : 720 pixels
Display aspect ratio : 16:9
Frame rate mode : Constant
Frame rate : 23.976 (24000/1001) FPS
Color space : YUV
Chroma subsampling : 4:2:0
Bit depth : 8 bits
Scan type : Progressive
Bits/(Pixel*Frame) : 0.143
Stream size : 1.07 GiB (71%)
Writing library : core 148 r2722 1b0121b
Encoding settings : cabac=1 / ref=3 / deblock=1:0:0 / analyse=0x1:0x111 / me=umh / subme=10 / psy=1 / psy_rd=1.00:0.00 / mixed_ref=1 / me_range=24 / chroma_me=1 / trellis=2 / 8x8dct=0 / cqm=0 / deadzone=21,11 / fast_pskip=1 / chroma_qp_offset=-2 / threads=6 / lookahead_threads=1 / sliced_threads=0 / nr=0 / decimate=1 / interlaced=0 / bluray_compat=0 / stitchable=1 / constrained_intra=0 / bframes=2 / b_pyramid=0 / b_adapt=2 / b_bias=0 / direct=3 / weightb=1 / open_gop=0 / weightp=2 / keyint=250 / keyint_min=23 / scenecut=0 / intra_refresh=0 / rc_lookahead=48 / rc=2pass / mbtree=1 / bitrate=3320 / ratetol=1.0 / qcomp=0.50 / qpmin=6 / qpmax=51 / qpstep=4 / cplxblur=20.0 / qblur=0.5 / vbv_maxrate=4980 / vbv_bufsize=6640 / nal_hrd=vbr / filler=0 / ip_ratio=1.40 / aq=1:1.00
Language : Japanese
Default : Yes
Forced : No

Audio #1
ID : 2
Format : AC-3
Format/Info : Audio Coding 3
Commercial name : Dolby Digital
Codec ID : A_AC3
Duration : 48 min 32 s
Bit rate mode : Constant
Bit rate : 640 kb/s
Channel(s) : 6 channels
Channel layout : L R C LFE Ls Rs
Sampling rate : 48.0 kHz
Frame rate : 31.250 FPS (1536 SPF)
Compression mode : Lossy
Stream size : 222 MiB (14%)
Title : ArtymKo
Language : Ukrainian
Service kind : Complete Main
Default : Yes
Forced : Yes

Audio #2
ID : 3
Format : E-AC-3
Format/Info : Enhanced AC-3
Commercial name : Dolby Digital Plus
Codec ID : A_EAC3
Duration : 48 min 31 s
Bit rate mode : Constant
Bit rate : 640 kb/s
Channel(s) : 6 channels
Channel layout : L R C LFE Ls Rs
Sampling rate : 48.0 kHz
Frame rate : 31.250 FPS (1536 SPF)
Compression mode : Lossy
Stream size : 222 MiB (14%)
Title : Оригінал
Language : Japanese
Service kind : Complete Main
Default : No
Forced : No

Text #1
ID : 4
Format :
Codec ID : S_TEXT/
Codec ID/Info : Advanced Sub Station Alpha
Duration : 15 s 130 ms
Bit rate : 302 b/s
Count of elements : 6
Compression mode : Lossless
Stream size : 573 Bytes (0%)
Title : Написи (ArtymKo)
Language : Ukrainian
Default : Yes
Forced : Yes

Text #2
ID : 5
Format :
Codec ID : S_TEXT/
Codec ID/Info : Advanced Sub Station Alpha
Duration : 45 min 1 s
Bit rate : 90 b/s
Count of elements : 489
Compression mode : Lossless
Stream size : 30.0 KiB (0%)
Title : Повні (ArtymKo)
Language : Ukrainian
Default : No
Forced : No

Text #3
ID : 6
Format :
Codec ID : S_TEXT/
Codec ID/Info : Advanced Sub Station Alpha
Duration : 45 min 34 s
Bit rate : 98 b/s
Count of elements : 530
Compression mode : Lossless
Stream size : 33.0 KiB (0%)
Title : Оригінал
Language : Japanese
Default : No
Forced : No
Знімки екрана


Команда озвучення «ArtymKo»
Переклад: SubAutumn
Текст читали: Artymko, Lomaev
Робота зі звуком: Dixyd
Випуск: Mormor
Обкладинка: mrgalser
Збір коштів завершено.
Дякуємо доброчинцям!
Підтримати команду можна за цим посиланням.

_____________
Збір коштів на озвучення
Замовити озвучення
Telegram
Facebook


Авторський реліз (завантажувати можна без реєстрації)
 Трекер:    Зареєстрований   

Завантажити / скачати серіал українською



відео для новачків



 Зареєстрований:   2021-02-24 17:26
 Розмір:   9.66 GB 
 Оцінка серіалу:   9.3/10 (Голосів: 15)
   
ArtymKo 
Свій


З нами з: 14.01.20
Востаннє: 28.02.21
Повідомлень: 92

2021-02-24 17:29  
Додано останній епізод!
Приємного перегляду Happy

Centuria 
Новенький


З нами з: 09.03.19
Востаннє: 02.03.21
Повідомлень: 3

2021-02-24 22:03  
ArtymKo
Дякую!

Centuria 
Новенький


З нами з: 09.03.19
Востаннє: 02.03.21
Повідомлень: 3

2021-02-25 02:22  
Коли чекати наступний сезон?
Masanchick 
VIP


З нами з: 08.04.11
Востаннє: 02.03.21
Повідомлень: 1203

2021-02-25 12:00  
Centuria
десь читав, що 2 сезон буде тільки в 2022 році показаний

ArtymKo 
Свій


З нами з: 14.01.20
Востаннє: 28.02.21
Повідомлень: 92

2021-02-25 12:07  
Centuria Над другим сезоном уже працюють. Дати виходу немає, але очікується на кінець цього року.
Centuria 
Новенький


З нами з: 09.03.19
Востаннє: 02.03.21
Повідомлень: 3

2021-02-25 12:27  
Masanchick
ArtymKo
Дяка

Ваш часовий пояс: GMT + 2 Години

Нова тема   Відповісти