Академія Амбрелла (Сезон 2) / The Umbrella Academy (Season 2) (2020) 1080p Ukr/Eng Sub Eng

Нові коментарі

Нова тема   Відповісти
Автор Повідомлення
Argentum 
VIP


З нами з: 25.09.11
Востаннє: 04.03.21
Повідомлень: 285

2021-01-16 18:02  
Академія Амбрелла (Сезон 2) / The Umbrella Academy (Season 2) (2020) 1080p Ukr/Eng Sub Eng

Академія Амбрелла (Сезон 2) / The Umbrella Academy (Season 2) (2020) 1080p Ukr/Eng Sub Eng


Жанр: пригодницький, фантастика, екшн, комедія, драма
Країна: США



Кінокомпанія: Netflix, Dark Horse Entertainment, Universal Cable Productions
Режисер: Ендрю Бернштейн, Пітер Хор, Еллен Керас
Актори: Том Гоппер, Девід Кастанеда, Еммі Равер-Лампман, Роберт Шіен, Елліот Пейдж, Джастін Г. Мін, Ейдан Галлагер, Мері Джей Блайдж, Камерон Бріттон, Джон Магаро, Адам Годлі, Колм Фіорі, Кейт Волш та інші.

Сюжет:
Події розгортаються в альтернативному всесвіті. В середині 20-го століття 43 жінки, які до цього не були вагітні, одночасно народжують немовлят, наділених суперздібностями. Прибулець, що ховається під личиною сера Реджинальда Гарггрівса, рятує сімох новонароджених і створює Академію «Амбрелла». Разом вони використовують свої таланти для захисту Землі.


Тривалість: 1 серія: ~ 48:00 (цілком серій: 10)
Перелік серій
2x01. Right Back Where We Started
2x02. The Frankel Footage
2x03. The Swedish Job
2x04. The Majestic 12
2x05. Valhalla
2x06. A Light Supper
2x07. Öga for Öga
2x08. The Seven Stages
2x09. 743
2x10. The End of Something
Якість:
Відео:
кодек:
розмір кадру: 1920 х 960
бітрейт: 10,1 - 14,3 Мб/с

Аудіо # 1:
мова: українська
переклад: багатоголосий закадровий | HDRezka (DniproFilm)
кодек: 5.1
бітрейт: 384 кб/с

Аудіо # 2:
мова: англійська
переклад: оригінал
кодек: 5.1
бітрейт: 640 кб/с

Субтитри: (форсовані)
мова: українська
тип: програмні (м'які)
формат: *.srt

Субтитри:
мова: англійська
тип: програмні (м'які)
формат: *.srt
Info
General
Unique ID : 299795010538754692720980915068588422828 (0xE18A6B364F3C7E7AA8675BFB9DCA76AC)
Complete name : The.Umbrella.Academy.S02E03..1080p.Ukr.Eng.Hurtom.
Format :
Format version : Version 4
File size : 4.58 GiB
Duration : 47 min 0 s
Overall bit rate : 14.0 Mb/s
Movie name : 2x03. The Swedish Job
Encoded date : UTC 2021-01-17 15:28:32
Writing application : v52.0.0 ('Secret For The Mad') 64-bit
Writing library : libebml v1.4.1 + v1.6.2

Video
ID : 1
Format : AVC
Format/Info : Advanced Video Codec
Format profile : [email protected]
Format settings : CABAC / 4 Ref Frames
Format settings, CABAC : Yes
Format settings, Reference : 4 frames
Codec ID : V_MPEG4/ISO/AVC
Duration : 47 min 0 s
Bit rate : 12.9 Mb/s
Width : 1 920 pixels
Height : 960 pixels
Display aspect ratio : 2.000
Frame rate mode : Constant
Frame rate : 23.976 (24000/1001) FPS
Color space : YUV
Chroma subsampling : 4:2:0
Bit depth : 8 bits
Scan type : Progressive
Bits/(Pixel*Frame) : 0.293
Stream size : 4.25 GiB (93%)
Title : AVC 1920*960 @ 12.9 Mb/s
Writing library : core 157 r2969 d4099dd
Encoding settings : cabac=1 / ref=4 / deblock=1:-3:-3 / analyse=0x3:0x133 / me=umh / subme=10 / psy=1 / psy_rd=1.00:0.00 / mixed_ref=1 / me_range=48 / chroma_me=1 / trellis=2 / 8x8dct=1 / cqm=0 / deadzone=21,11 / fast_pskip=0 / chroma_qp_offset=-2 / threads=24 / lookahead_threads=4 / sliced_threads=0 / nr=0 / decimate=0 / interlaced=0 / bluray_compat=0 / constrained_intra=0 / bframes=9 / b_pyramid=0 / b_adapt=2 / b_bias=0 / direct=3 / weightb=1 / open_gop=0 / weightp=2 / keyint=250 / keyint_min=23 / scenecut=40 / intra_refresh=0 / rc_lookahead=60 / rc=crf / mbtree=0 / crf=17.5 / qcomp=0.60 / qpmin=0 / qpmax=69 / qpstep=4 / vbv_maxrate=62500 / vbv_bufsize=78125 / crf_max=0.0 / nal_hrd=none / filler=0 / ip_ratio=1.40 / pb_ratio=1.30 / aq=3:0.80
Language : Multiple languages
Default : Yes
Forced : Yes

Audio #1
ID : 2
Format : AC-3
Format/Info : Audio Coding 3
Commercial name : Dolby Digital
Codec ID : A_AC3
Duration : 46 min 58 s
Bit rate mode : Constant
Bit rate : 384 kb/s
Channel(s) : 6 channels
Channel layout : L R C LFE Ls Rs
Sampling rate : 48.0 kHz
Frame rate : 31.250 FPS (1536 SPF)
Compression mode : Lossy
Stream size : 129 MiB (3%)
Title : AC-3 5.1 @ 384 kb/s # DniproFilm
Language : Ukrainian
Service kind : Complete Main
Default : Yes
Forced : Yes

Audio #2
ID : 3
Format : AC-3
Format/Info : Audio Coding 3
Commercial name : Dolby Digital
Codec ID : A_AC3
Duration : 46 min 57 s
Bit rate mode : Constant
Bit rate : 640 kb/s
Channel(s) : 6 channels
Channel layout : L R C LFE Ls Rs
Sampling rate : 48.0 kHz
Frame rate : 31.250 FPS (1536 SPF)
Compression mode : Lossy
Delay relative to video : 1 s 0 ms
Stream size : 215 MiB (5%)
Title : AC-3 5.1 @ 640 kb/s
Language : English
Service kind : Complete Main
Default : No
Forced : No

Text #1
ID : 4
Format : UTF-8
Codec ID : S_TEXT/UTF8
Codec ID/Info : UTF-8 Plain Text
Duration : 19 min 13 s
Bit rate : 2 b/s
Count of elements : 10
Stream size : 383 Bytes (0%)
Title : Forced
Language : Ukrainian
Default : Yes
Forced : Yes

Text #2
ID : 5
Format : UTF-8
Codec ID : S_TEXT/UTF8
Codec ID/Info : UTF-8 Plain Text
Duration : 45 min 52 s
Bit rate : 69 b/s
Count of elements : 793
Stream size : 23.4 KiB (0%)
Title : Full
Language : English
Default : No
Forced : No
Скріншоти









Джерело:
Особиста оцінка: 8 - мені сподобалося



Авторський реліз (завантажувати можна без реєстрації)
 Трекер:    Зареєстрований   

Завантажити / скачати серіал українською



відео для новачків



 Зареєстрований:   2021-01-17 19:36
 Розмір:   43.21 GB 
 Оцінка серіалу:   10/10 (Голосів: 2)
   
21jumpstreet 
VIP


З нами з: 03.07.12
Востаннє: 04.03.21
Повідомлень: 1715

2021-01-16 18:21  
Оце так! Шкода, до Пейдж хлопець!
bot 
робот


З нами з: 30.09.07
Востаннє: 26.05.05
Повідомлень: 27307

2021-01-17 19:36  
Тему перенесено з Анонси релізів до форуму Серіали в HD


Argentum

BASTERD-94 
VIP


З нами з: 27.11.10
Востаннє: 04.03.21
Повідомлень: 452

2021-01-18 01:41  

21jumpstreet написано:
Оце так! Шкода, до Пейдж хлопець!

Що, вже не „ВАН ЛАВ”?

Masanchick 
VIP


З нами з: 08.04.11
Востаннє: 04.03.21
Повідомлень: 1224

2021-01-18 01:46  
BASTERD-94
Не один я слідкую за списком Ван Лав)

BASTERD-94 
VIP


З нами з: 27.11.10
Востаннє: 04.03.21
Повідомлень: 452

2021-01-18 02:11  

Masanchick написано:
BASTERD-94
Не один я слідкую за списком Ван Лав)

Слідкував ще до того, як це стало мейнстримом. Wink (2)
А якщо серйозно, то просто не зміг стриматись, щоб не відписати)

Dronosaur 
Новенький


З нами з: 02.09.14
Востаннє: 04.03.21
Повідомлень: 8

2021-01-18 12:13  
Я мав час та натхнення, а тому представляю 21jumpstreet "ван лав" список станом на зараз:
(доповнення приймаються та вітаються)
2020-04-14 10:52 - Люсі Хейл
2020-04-27 13:07 - Рона Мітра
2020-04-27 14:53 - Ейса Ґонсалес
2020-05-01 16:03 - Тіка Самптер
2020-05-20 20:34 - Дженніфер Джейсон Лі
2020-06-07 11:04 - Аня Тейлор Джой
2020-06-07 23:17 - Демі Мур
2020-06-17 17:37 - Тіна Фей
2020-08-01 22:53 - Ширлі Маклейн
2020-08-11 11:22 - Джинн Тріплхорн
2020-10-24 23:31 - Блейк Лайвлі
2020-11-11 17:57 - Меріел Гемінґвей
2020-12-12 12:50 - Барбара Герші
2020-12-23 18:04 - Флоренс П'ю
2021-01-06 19:59 - Брі Ларсон

drek0rig 
Новенький


З нами з: 28.12.19
Востаннє: 01.03.21
Повідомлень: 11

2021-02-25 20:15  
Соррі за офф-топ, а що за список такий, як він формується?) Бо щось гугл якісь не релевантні результати видає
Ваш часовий пояс: GMT + 2 Години

Нова тема   Відповісти