НаркоМАМА (Mama Weed) / La daronne (2020) 1080p H.265 Ukr/Fre | Sub Eng

Нові коментарі

Нова тема   Відповісти
Автор Повідомлення
Anonymous 







2021-01-16 14:11  
НаркоМАМА (Mama Weed) / La daronne (2020) 1080p H.265 Ukr/Fre | Sub Eng

НаркоМАМА (Mama Weed) / La daronne (2020) 1080p H.265 Ukr/Fre | Sub Eng


Жанр: комедія, кримінальний, драма
Країна: Франція
Кінокомпанія: Les Films du Lendemain, La Boetie Films, Le Pacte, Scope Pictures, Franklin Films, Les Films de la Greluche, Restons Groupés Production, Les Films du Camélia, Canal+, OCS, Cofimage 30, Cinéventure 4, La Région Île-de-France, Centre National du Cinéma et de l'Image Animée
Режисер: Жан-Поль Саломе / Jean-Paul Salomé
Актори: Ізабель Юппер / Isabelle Huppert, Іпполіт Жирардо / Hippolyte Girardot, Фаріда Ушані / Farida Ouchani, Ліліан Ровер / Liliane Rovère, Айріс Брай / Iris Bry, Надя Нгуйєн / Nadja Nguyen, Ребекка Мардер / Rebecca Marder, Рашид Гуеллаз / Rachid Guellaz, Мурад Будауд / Mourad Boudaoud, Юссеф Сарауі / Youssef Sahraoui та інші.

Сюжет:
Талановита перекладачка працює в поліції, допомагає розкривати злочини. Одного разу їй стає відомо про велику партію наркотиків. Спокуса змінити життя надто велика. І от вона перетворюється на НаркоМаму, і будує свою імперію. Тепер вся поліція полює на неї.

Тривалість: 01:45:14
Якість:

Відео:
кодек: H.265 (HEVC)
розмір кадру: 1920 x 804
бітрейт: 6 885 кб/с
бітова глибина: 10 біт

Увага! Перед завантаженням переконайтесь, що ваш пристрій відтворення (та/або ПЗ) підтримує H.265 (HEVC)

Аудіо # 1:
мова: українська
озвучення: багатоголосе закадрове
кодек: AC-3 5.1
бітрейт: 384 кб/с

Аудіо # 2:
мова: французька
озвучення: оригінал
кодек: AC-3 5.1
бітрейт: 640 кб/с

Субтитри # 1: (Full)
мова: англійська
тип: програмні (м'які)
формат: *.srt


Інформація про файл
Код:
General
Unique ID                                : 194764046142821491021591234006055940091 (0x928630DBEA6D3A5A12AF175E6B2C6FFB)
Complete name                            : La daronne (2020) 1080p H.265 [UKR_FRE] [Hurtom].
Format                                   :
Format version                           : Version 4
File size                                : 5.82 GiB
Duration                                 : 1 h 45 min
Overall bit rate                         : 7 917 kb/s
Movie name                               : НаркоМАМА (Mama Weed) / La daronne (2020)
Encoded date                             : UTC 2021-01-16 12:07:40
Writing application                      : v20.0.0 ('I Am The Sun') 64-bit
Writing library                          : libebml v1.3.5 + v1.4.8
Cover                                    : Yes
Attachments                              : Cover.png

Video
ID                                       : 1
Format                                   : HEVC
Format/Info                              : High Efficiency Video Coding
Format profile                           : Main [email protected]@High
Codec ID                                 : V_MPEGH/ISO/HEVC
Duration                                 : 1 h 45 min
Bit rate                                 : 6 885 kb/s
Width                                    : 1 920 pixels
Height                                   : 804 pixels
Display aspect ratio                     : 2.40:1
Frame rate mode                          : Constant
Frame rate                               : 23.976 (24000/1001) FPS
Color space                              : YUV
Chroma subsampling                       : 4:2:0
Bit depth                                : 10 bits
Bits/(Pixel*Frame)                       : 0.186
Stream size                              : 5.06 GiB (87%)
Title                                    : НаркоМАМА (Mama Weed) / La daronne (2020)
Writing library                          : x265 3.4+28-419182243:[Windows][clang 11.0.0][64 bit] 10bit
Encoding settings                        : cpuid=1111039 / frame-threads=3 / numa-pools=12 / wpp / no-pmode / no-pme / no-psnr / no-ssim / log-level=3 / input-csp=1 / input-res=1920x804 / interlace=0 / total-frames=0 / level-idc=41 / high-tier=1 / uhd-bd=0 / ref=5 / allow-non-conformance / no-repeat-headers / annexb / no-aud / no-hrd / info / hash=0 / no-temporal-layers / open-gop / min-keyint=23 / keyint=250 / gop-lookahead=0 / bframes=14 / b-adapt=2 / b-pyramid / bframe-bias=0 / rc-lookahead=60 / lookahead-slices=5 / scenecut=40 / hist-scenecut=0 / radl=0 / no-splice / no-intra-refresh / ctu=32 / min-cu-size=8 / no-rect / no-amp / max-tu-size=32 / tu-inter-depth=4 / tu-intra-depth=4 / limit-tu=0 / rdoq-level=2 / dynamic-rd=0.00 / no-ssim-rd / signhide / no-tskip / nr-intra=0 / nr-inter=0 / no-constrained-intra / strong-intra-smoothing / max-merge=5 / limit-refs=3 / no-limit-modes / me=3 / subme=7 / merange=57 / temporal-mvp / no-frame-dup / no-hme / weightp / no-weightb / no-analyze-src-pics / deblock=-3:-3 / no-sao / no-sao-non-deblock / rd=4 / selective-sao=0 / early-skip / rskip / no-fast-intra / no-tskip-fast / no-cu-lossless / b-intra / no-splitrd-skip / rdpenalty=0 / psy-rd=2.00 / psy-rdoq=1.00 / no-rd-refine / no-lossless / cbqpoffs=0 / crqpoffs=0 / rc=crf / crf=19.0 / qcomp=0.65 / qpstep=4 / stats-write=0 / stats-read=0 / vbv-maxrate=50000 / vbv-bufsize=50000 / vbv-init=0.9 / min-vbv-fullness=50.0 / max-vbv-fullness=80.0 / crf-max=30.0 / crf-min=0.0 / ipratio=1.40 / pbratio=1.30 / aq-mode=1 / aq-strength=1.00 / no-cutree / zone-count=0 / no-strict-cbr / qg-size=32 / no-rc-grain / qpmax=69 / qpmin=0 / no-const-vbv / sar=1 / overscan=0 / videoformat=5 / range=0 / colorprim=2 / transfer=2 / colormatrix=2 / chromaloc=0 / display-window=0 / cll=0,0 / min-luma=0 / max-luma=1023 / log2-max-poc-lsb=8 / vui-timing-info / vui-hrd-info / slices=1 / no-opt-qp-pps / no-opt-ref-list-length-pps / no-multi-pass-opt-rps / scenecut-bias=0.05 / hist-threshold=0.03 / no-opt-cu-delta-qp / no-aq-motion / no-hdr10 / no-hdr10-opt / no-dhdr10-opt / no-idr-recovery-sei / analysis-reuse-level=0 / analysis-save-reuse-level=0 / analysis-load-reuse-level=0 / scale-factor=0 / refine-intra=0 / refine-inter=0 / refine-mv=1 / refine-ctu-distortion=0 / no-limit-sao / ctu-info=0 / no-lowpass-dct / refine-analysis-type=0 / copy-pic=1 / max-ausize-factor=1.0 / no-dynamic-refine / no-single-sei / no-hevc-aq / no-svt / no-field / qp-adaptation-range=1.00 / no-scenecut-aware-qpconformance-window-offsets / right=0 / bottom=0 / decoder-max-rate=0 / no-vbv-live-multi-pass
Language                                 : French
Default                                  : Yes
Forced                                   : No
Color range                              : Limited
Color primaries                          : BT.709
Transfer characteristics                 : BT.709
Matrix coefficients                      : BT.709

Audio #1
ID                                       : 2
Format                                   : AC-3
Format/Info                              : Audio Coding 3
Commercial name                          : Dolby Digital
Codec ID                                 : A_AC3
Duration                                 : 1 h 45 min
Bit rate mode                            : Constant
Bit rate                                 : 384 kb/s
Channel(s)                               : 6 channels
Channel layout                           : L R C LFE Ls Rs
Sampling rate                            : 48.0 kHz
Frame rate                               : 31.250 FPS (1536 SPF)
Compression mode                         : Lossy
Stream size                              : 289 MiB (5%)
Title                                    : AC-3 / 5.1 Ch / 384 kbps / MVO
Language                                 : Ukrainian
Service kind                             : Complete Main
Default                                  : Yes
Forced                                   : Yes

Audio #2
ID                                       : 3
Format                                   : AC-3
Format/Info                              : Audio Coding 3
Commercial name                          : Dolby Digital
Codec ID                                 : A_AC3
Duration                                 : 1 h 45 min
Bit rate mode                            : Constant
Bit rate                                 : 640 kb/s
Channel(s)                               : 6 channels
Channel layout                           : L R C LFE Ls Rs
Sampling rate                            : 48.0 kHz
Frame rate                               : 31.250 FPS (1536 SPF)
Compression mode                         : Lossy
Stream size                              : 482 MiB (8%)
Title                                    : AC-3 / 5.1 Ch / 640 kbps / Original
Language                                 : French
Service kind                             : Complete Main
Default                                  : No
Forced                                   : No

Text
ID                                       : 4
Format                                   : UTF-8
Codec ID                                 : S_TEXT/UTF8
Codec ID/Info                            : UTF-8 Plain Text
Duration                                 : 1 h 43 min
Bit rate                                 : 42 b/s
Count of elements                        : 1192
Stream size                              : 32.6 KiB (0%)
Title                                    : Full
Language                                 : English
Default                                  : No
Forced                                   : No

Menu
00:00:00.000                             : :Chapter 01
00:07:51.346                             : :Chapter 02
00:15:56.581                             : :Chapter 03
00:23:09.054                             : :Chapter 04
00:31:07.824                             : :Chapter 05
00:39:49.971                             : :Chapter 06
00:47:00.401                             : :Chapter 07
00:55:30.911                             : :Chapter 08
01:05:44.065                             : :Chapter 09
01:14:08.444                             : :Chapter 10
01:23:14.823                             : :Chapter 11
01:31:47.377                             : :Chapter 12
01:40:11.964                             : :Chapter 13
Лог кодування
Код:
x265 info: frame I: 1472, Avg QP:15.04 kb/s: 20257.31
x265 info: frame P: 28281, Avg QP:16.38 kb/s: 12459.15
x265 info: frame B: 121638, Avg QP:18.10 kb/s: 5425.64
Світлини




Джерело: &
Особиста оцінка: 0 - не дивився


 Трекер:    Зареєстрований   

Завантажити / скачати фільм українською



відео для новачків



 Зареєстрований:   2021-01-16 14:11
 Розмір:   5.82 GB 
 Оцінка фільму:   8/10 (Голосів: 5)
   
Інші релізи
   НаркоМАМА (Mama Weed) / La daronne (2020) Ukr/Fre antik_2008  23 / 0   1.98 GB   2021-01-13 01:53 
   НаркоМАМА (Mama Weed) / La daronne (2020) 1080p Ukr/Fre | Sub Eng kryk-v.ya.  14 / 0   9.28 GB   2021-01-12 18:04 
   НаркоМАМА / La daronne (2020) Remux 1080p Ukr/Fre | Sub Fre/Eng staf777  9 / 0   29.1 GB   2021-01-12 14:45 
   НаркоМАМА (Mama Weed) / La daronne (2020) 720p Ukr/Fre | Sub Eng igor911  13 / 0   5.74 GB   2021-01-12 14:20 
   НаркоМАМА / La daronne (2020) AVC Ukr/Fre | Sub Eng eneyida.tv  32 / 0   2.46 GB   2021-01-12 12:18 
Ваш часовий пояс: GMT + 2 Години

Нова тема   Відповісти