Дім з прислугою (Сезон 1) / Servant (Season 1) (2019) 1080p Ukr/Eng | Sub Ukr/Eng

Нові коментарі

Нова тема   Відповісти
Автор Повідомлення
Anaive 
VIP


З нами з: 07.06.11
Востаннє: 07.03.21
Повідомлень: 356

2021-01-15 21:06  
Дім з прислугою (Сезон 1) / Servant (Season 1) (2019) 1080p Ukr/Eng | Sub Ukr/Eng

Дім з прислугою (Сезон 1) / Servant (Season 1) (2019) 1080p Ukr/Eng | Sub Ukr/Eng


Жанр: драма, жахи, трилер
Країна: США



Кінокомпанія: Apple
Режисер: М. Найт Ш'ямалан
Актори: Лорен Емброуз, Руперт Грінт, Нелл Тайґер Фрі, Тобі Кеббелл

Сюжет:
"Дім з прислугою" від М. Найта Ш'ямалана розповідає історію подружжя з Філадельфії, що перебуває у жалобі через жахливу трагедію, в результаті якої їній шлюб дає тріщину і впускає у будинок таємну силу.


Тривалість: 1 серія: ~ 35:00 (цілком серій: 10 з 10)
Перелік серій
1. Переродження / Reborn
2. Дерево / Wood
3. Вугор / Eel
4. Ведмідь / Bear
5. Цвіркун / Cricket
6. Дощ / Rain
7. Хагіс / Haggis
8. Боба / Boba
9. Джеріко / Jericho
10. Повітряна кулька / Balloon
Якість:
Відео:
кодек:
розмір кадру: 1920 х 960
бітрейт: ~ 10.1 мб/с

Аудіо # 1:
мова: українська
переклад: багатоголосий закадровий | В одне рило
кодек: ААС 2.0
бітрейт: 192 кб/с

Аудіо # 2:
мова: англійська
переклад: оригінал
кодек: E- JOC 5.1
бітрейт: 768 кб/с

Субтитри # 1:
мова: українська
тип: програмні (м'які)
формат: *.srt
переклад: офіційний, Анастасія Жищинська

Субтитри # 2:
мова: англійська
тип: програмні (м'які)
формат: *.srt
Info
General
Unique ID : 338855308913514738297153875504295439652 (0xFEED289BA7C68A37035BB57D5B6DED24)
Complete name : D:\Video\Servant (Season 1) (2019) 1080р\Servant S01E01 [Audio Eng. Sub Ukr_Eng] 1080р.
Format :
Format version : Version 4
File size : 2.71 GiB
Duration : 35 min 0 s
Overall bit rate : 11.1 Mb/s
Encoded date : UTC 2021-01-14 17:01:10
Writing application : v41.0.0 ('Smarra') 64-bit
Writing library : libebml v1.3.9 + v1.5.2

Video
ID : 1
Format : AVC
Format/Info : Advanced Video Codec
Format profile : [email protected]
Format settings : CABAC / 4 Ref Frames
Format settings, CABAC : Yes
Format settings, Reference frames : 4 frames
Codec ID : V_MPEG4/ISO/AVC
Duration : 34 min 58 s
Bit rate : 10.1 Mb/s
Width : 1 920 pixels
Height : 960 pixels
Display aspect ratio : 2.000
Frame rate mode : Constant
Frame rate : 23.976 (24000/1001) FPS
Color space : YUV
Chroma subsampling : 4:2:0
Bit depth : 8 bits
Scan type : Progressive
Bits/(Pixel*Frame) : 0.229
Stream size : 2.48 GiB (91%)
Title : Release by EniaHD
Language : English
Default : Yes
Forced : No
Color range : Limited
Color primaries : BT.709
Transfer characteristics : BT.709
Matrix coefficients : BT.709

Audio #1
ID : 2
Format : LC
Format/Info : Advanced Audio Codec Low Complexity
Codec ID : A_AAC-2
Duration : 35 min 0 s
Bit rate : 192 kb/s
Channel(s) : 2 channels
Channel layout : L R
Sampling rate : 48.0 kHz
Frame rate : 46.875 FPS (1024 SPF)
Compression mode : Lossy
Stream size : 48.9 MiB (2%)
Language : Ukrainian
Default : Yes
Forced : No

Audio #2
ID : 3
Format : E-AC-3 JOC
Format/Info : Enhanced AC-3 with Joint Object Coding
Commercial name : Dolby Digital Plus with Dolby Atmos
Codec ID : A_EAC3
Duration : 34 min 58 s
Bit rate mode : Constant
Bit rate : 768 kb/s
Channel(s) : 6 channels
Channel layout : L R C LFE Ls Rs
Sampling rate : 48.0 kHz
Frame rate : 31.250 FPS (1536 SPF)
Compression mode : Lossy
Stream size : 192 MiB (7%)
Language : English
Service kind : Complete Main
Default : No
Forced : No
Complexity index : 16
Number of dynamic objects : 15
Bed channel count : 1 channel
Bed channel configuration : LFE

Text #1
ID : 4
Format : UTF-8
Codec ID : S_TEXT/UTF8
Codec ID/Info : UTF-8 Plain Text
Duration : 34 min 19 s
Bit rate : 63 b/s
Count of elements : 321
Stream size : 15.9 KiB (0%)
Language : Ukrainian
Default : No
Forced : No

Text #2
ID : 5
Format : UTF-8
Codec ID : S_TEXT/UTF8
Codec ID/Info : UTF-8 Plain Text
Duration : 31 min 19 s
Bit rate : 46 b/s
Count of elements : 311
Stream size : 10.6 KiB (0%)
Title : English
Language : English
Default : No
Forced : No
Скріншоти



Особиста оцінка: 8 - мені сподобалося



Авторський реліз (завантажувати можна без реєстрації)
 Трекер:    Зареєстрований   

Завантажити / скачати серіал українською



відео для новачків



 Зареєстрований:   2021-01-15 21:06
 Розмір:   24.67 GB 
 Оцінка серіалу:   10/10 (Голосів: 4)
   
antik_2008 
Релізер і модератор відео


З нами з: 20.10.08
Востаннє: 05.03.21
Повідомлень: 4714

2021-01-15 21:34  
Anaive
Другий сезон чекати?

Anaive 
VIP


З нами з: 07.06.11
Востаннє: 07.03.21
Повідомлень: 356

2021-01-15 21:46  
antik_2008
звісно Happy
В одне рило повернеться 19 січня, тоді з'являться перші серії.

Додано через 8 хвилин 13 секунд:

До речі Артимко вже записала першу серію)

Додано через 1 хвилину 45 секунд:

Серії в першому сезоні підганяв через MKVToolnix (4-10), перевірив всі. Здається все добре.

Ваш часовий пояс: GMT + 2 Години

Нова тема   Відповісти