Вілла "Блідий кінь" (Мінісеріал) / The Pale Horse (Mini-Series) (2020) 1080p Ukr/Eng

Нові коментарі

Нова тема   Відповісти
Автор Повідомлення
Anonymous 







2021-01-15 17:00  
Вілла "Блідий кінь" (Мінісеріал) / The Pale Horse (Mini-Series) (2020) 1080p Ukr/Eng

Вілла "Блідий кінь" (Мінісеріал) / The Pale Horse (Mini-Series) (2020) 1080p Ukr/Eng


Жанр: детектив, драма, кримінальний, трилер
Країна: США



Кінокомпанія: Mammoth Screen, Agatha Christie Productions, British Broadcasting Corporation (BBC)
Режисер: Леонора Лонсдейл
Актори: Руфус Сьюелл, Кая Скоделаріо, Джорджина Кемпбелл, Кеті Кіра Кларк, Шила Атім, Рита Ташинґем, Мадлен Бовєр, Шон Перті, Берті Карвел та інші.

Сюжет:
В основу сюжету серіалу лягла історія, написана Агатою Крісті. У центрі уваги Марк Істербрук. Він береться за розслідування справ, пов'язаних з дивною низкою смертей. Свідків практично немає - знаходиться одна єдина молода дівчина, яка готова розповісти те, що знає про цю справу.


Тривалість: 1 серія: 45 хв (цілком серій: 3)
Перелік серій
01. Part One
02. Part Two
03. Part Three
Якість:
Відео:
кодек:
розмір кадру: 1920x1080
бітрейт: 3 152 кб/с
примітка: телеканал показав 3 серійну версію, та не озвучив "У попередній серії" та "У наступній серії".

Аудіо # 1:
мова: українська
озвучення: професійне, псевдодубляж |
кодек: 2.0 (стерео)
бітрейт: 192 кб/с
Інформація про озвучення:
Ролі озвучили: Дмитро Нежельський, Михайло Войчук, Дмитро Вікулов, Андрій Соболєв, Юлія Малахова та ще один жіночий.

Аудіо # 2:
мова: англійська
озвучення: оригінал
кодек: AАC 2.0
бітрейт: 192 кб/с
Info
General
Unique ID : 110304668111935793270930303424281589071 (0x52FBE80563E177D672926BC0D9BA354F)
Complete name : D:\The Pale Horse (Mini-Series) (2020) 1080p [UKR_ENG] [Hurtom]\S01E01 - Part One [Ukr_Eng] [Hurtom].
Format :
Format version : Version 4 / Version 2
File size : 1.10 GiB
Duration : 45 min 17 s
Overall bit rate : 3 474 kb/s
Encoded date : UTC 2021-01-15 14:36:14
Writing application : v51.0.0 ('I Wish') 32-bit
Writing library : libebml v1.4.0 + v1.6.2

Video
ID : 1
Format : AVC
Format/Info : Advanced Video Codec
Format profile : [email protected]
Format settings, CABAC : Yes
Format settings, RefFrames : 4 frames
Codec ID : V_MPEG4/ISO/AVC
Duration : 45 min 17 s
Bit rate : 3 152 kb/s
Nominal bit rate : 15.0 Mb/s
Width : 1 920 pixels
Height : 1 080 pixels
Display aspect ratio : 16:9
Frame rate mode : Constant
Frame rate : 25.000 FPS
Color space : YUV
Chroma subsampling : 4:2:0
Bit depth : 8 bits
Scan type : Progressive
Bits/(Pixel*Frame) : 0.061
Stream size : 1 021 MiB (91%)
Writing library : core 148
Encoding settings : cabac=1 / ref=3 / deblock=1:0:0 / analyse=0x1:0x131 / me=hex / subme=10 / psy=0 / mixed_ref=1 / me_range=16 / chroma_me=1 / trellis=2 / 8x8dct=0 / cqm=0 / deadzone=21,11 / fast_pskip=1 / chroma_qp_offset=0 / threads=28 / lookahead_threads=2 / sliced_threads=0 / nr=0 / decimate=1 / interlaced=0 / paff=0 / bluray_compat=0 / constrained_intra=0 / bframes=3 / b_pyramid=2 / b_adapt=1 / b_bias=0 / direct=3 / weightb=1 / open_gop=0 / weightp=2 / keyint=250 / keyint_min=25 / scenecut=0 / intra_refresh=0 / rc_lookahead=40 / rc=cbr / mbtree=1 / bitrate=15000 / ratetol=1.0 / qcomp=0.60 / qpmin=0 / qpmax=69 / qpstep=4 / vbv_maxrate=15000 / vbv_bufsize=15000 / nal_hrd=cbr / filler=1 / ip_ratio=1.00 / aq=1:0.00
Language : Swedish
Default : Yes
Forced : No
Color range : Limited
Color primaries : BT.709
Transfer characteristics : BT.709
Matrix coefficients : BT.709

Audio #1
ID : 2
Format : AC-3
Format/Info : Audio Coding 3
Format settings, Endianness : Big
Codec ID : A_AC3
Duration : 45 min 17 s
Bit rate mode : Constant
Bit rate : 192 kb/s
Channel(s) : 2 channels
Channel positions : Front: L R
Sampling rate : 48.0 kHz
Frame rate : 31.250 FPS (1536 SPF)
Bit depth : 16 bits
Compression mode : Lossy
Stream size : 62.2 MiB (6%)
Title : Inter
Language : Ukrainian
Service kind : Complete Main
Default : Yes
Forced : Yes

Audio #2
ID : 3
Format :
Format/Info : Advanced Audio Codec
Format profile : LC
Codec ID : A_AAC
Duration : 45 min 17 s
Bit rate : 128 kb/s
Channel(s) : 2 channels
Channel positions : Front: L R
Sampling rate : 48.0 kHz
Frame rate : 46.875 FPS (1024 SPF)
Compression mode : Lossy
Stream size : 41.5 MiB (4%)
Title : Original
Language : English
Default : No
Forced : No
Скріншоти
Джерело: &
Особиста оцінка: 0 - не дивився


Бронзовий реліз (на рейтинг впливає 75% завантаженого)
 Трекер:    Зареєстрований   

Завантажити / скачати серіал українською



відео для новачків



 Зареєстрований:   2021-01-15 17:00
 Розмір:   3.19 GB 
 Оцінка серіалу:   8.9/10 (Голосів: 11)
   
Ваш часовий пояс: GMT + 2 Години

Нова тема   Відповісти