Дванадцять мавп / Twelve Monkeys (1995) 720p 3xUkr/Eng | Sub Ukr/Eng [Arrow Films Remastered]

Нові коментарі

Нова тема   Відповісти
Автор Повідомлення
Anonymous 







2021-01-15 11:09  
Дванадцять мавп / Twelve Monkeys (1995) 720p 3xUkr/Eng | Sub Ukr/Eng [Arrow Films Remastered]

Дванадцять мавп / Twelve Monkeys (1995) 720p 3xUkr/Eng | Sub Ukr/Eng [Arrow Films Remastered]


Жанр: фантастика, детектив, трилер
Країна: США



Кінокомпанія: Universal Pictures, Atlas Entertainment, Classico, Twelve Monkeys Productions
Режисер: Террі Ґілліам / Terry Gilliam
Актори: Брюс Вілліс / Bruce Willis, Бред Пітт / Brad Pitt, Медлін Стоу / Madeleine Stowe, Крістофер Пламмер / Christopher Plummer, Девід Морс / David Morse, Джозеф Міліто / Joseph Melito, Джон Седа / Jon Seda, Майкл Ченс / Michael Chance, Вернон Кемпбелл / Vernon Campbell, Г. Майкл Воллс / H. Michael Walls та інші.

Сюжет:
Культовий, сюрреалістичний, науково-фантастичний трилер, що завоював прихильність глядачів не спецефектами, а високою якістю сюжету та акторською грою.

Події розгортаються у шаленому світі майбутнього. Люди майже вимерли від страшного вірусу, а ті, що залишилися, живуть десь під землею. Дивні люди-вчені проводять досліди з переміщенням у часі. А щоб не сидіти півстоліття у в'язниці, багато хто згоден підписатися на участь у безрозсудному експерименті. Одним з таких піддослідних стає Джеймс Коул (Брюс Вілліс), який відправляється в небезпечну подорож в минуле, у 1996 рік. Він має допомогти вченим знайти джерело виникнення жахливого вірусу, що знищив людство і розкрити загадку таємничих "Дванадцяти мавп".

Одна біда, потрапивши в 90-і, Коул швидко опиняється у психіатричній лікарні, де його тримають як божевільного…


Тривалість: 02:09:31
Якість: 720p [ріп від KASHMiR, Arrow Films Remastered*]
порівняння якості зображення попереднього видання з Arrow Films Remastered:
Відео:
кодек:
розмір кадру: 1280 x 692
бітрейт: 9500 кб/с

Аудіо # 1:
мова: українська
озвучення: двоголосе закадрове
кодек: 5.1
бітрейт: 1510 кб/с
примітка: доріжка отримана шляхом накладання чистих голосів на центр декодованого -HD MA

Аудіо # 2:
мова: українська
озвучення: двоголосе закадрове
кодек: 5.1
бітрейт: 640 кб/с
примітка: ідентична #1, додана для сумісності з пристроями без підтримки

Аудіо # 3:
мова: українська
озвучення: двоголосе закадрове
кодек: 2.0
бітрейт: 192 кб/с

Аудіо # 4:
мова: українська
озвучення: багатоголосе закадрове
кодек: 2.0
бітрейт: 192 кб/с

Аудіо # 5:
мова: англійська
озвучення: оригінал
кодек: 5.1
бітрейт: 640 кб/с

Аудіо # 6:
мова: англійська
озвучення:коментарі режисера Террі Гілліама та продюсера Чарльза Ровена
кодек: 2.0
бітрейт: 320 кб/с

Субтитри # 1:
мова: українська
тип: програмні (м'які)
формат: *.srt

Субтитри # 2-4:
мова: англійська (повні, SDH, коментарі)
тип: програмні (м'які)
формат: *.srt

Збережено оригінальні іменовані розділи, як на Blu-ray
Info, log, примітки автора ріпу
Код:
Complete name               : Twelve Monkeys [Remastered] (1995) [3xUkr,Eng sub.Ukr,Eng] 720p [Hurtom].
Format                      :
Format version              : Version 4
File size                   : 11.6 GiB
Duration                    : 2 h 9 min
Overall bit rate            : 12.9 Mb/s
Movie name                  : Дванадцять мавп / Twelve Monkeys [Remastered] (1995) [3xUkr,Eng sub.Ukr,Eng] 720p [Hurtom]
Encoded date                : UTC 2021-01-15 15:08:38
Writing application         : v52.0.0 ('Secret For The Mad') 64-bit
Writing library             : libebml v1.4.1 + v1.6.2
Cover                       : Yes
Attachments                 : cover.jpg

Video
ID                          : 1
Format                      : AVC
Format/Info                 : Advanced Video Codec
Format profile              : [email protected]
Format settings             : CABAC / 9 Ref Frames
Format settings, CABAC      : Yes
Format settings, Reference  : 9 frames
Codec ID                    : V_MPEG4/ISO/AVC
Duration                    : 2 h 9 min
Bit rate                    : 9 500 kb/s
Width                       : 1 280 pixels
Height                      : 692 pixels
Display aspect ratio        : 1.85:1
Frame rate mode             : Constant
Frame rate                  : 23.976 (24000/1001) FPS
Color space                 : YUV
Chroma subsampling          : 4:2:0
Bit depth                   : 8 bits
Scan type                   : Progressive
Bits/(Pixel*Frame)          : 0.447
Stream size                 : 8.59 GiB (74%)
Title                       : Дванадцять мавп / Twelve Monkeys (1995) 720p [Arrow Films Remastered, rip by KASHMiR]
Writing library             : core 152 r2851kMod ba24899
Encoding settings           : cabac=1 / ref=9 / deblock=1:-3:-3 / analyse=0x3:0x133 / me=umh / subme=11 / psy=1 / fade_compensate=0.00 / psy_rd=1.05:0.00 / mixed_ref=1 / me_range=32 / chroma_me=1 / trellis=2 / 8x8dct=1 / cqm=0 / deadzone=21,11 / fast_pskip=0 / chroma_qp_offset=-2 / threads=12 / lookahead_threads=2 / sliced_threads=0 / slices=4 / nr=0 / decimate=0 / interlaced=0 / bluray_compat=0 / constrained_intra=0 / bframes=8 / b_pyramid=2 / b_adapt=2 / b_bias=0 / direct=3 / weightb=1 / open_gop=0 / weightp=2 / keyint=250 / keyint_min=23 / scenecut=40 / intra_refresh=0 / rc_lookahead=40 / rc=2pass / mbtree=0 / bitrate=9500 / ratetol=1.0 / qcomp=0.60 / qpmin=0 / qpmax=69 / qpstep=4 / cplxblur=20.0 / qblur=0.5 / vbv_maxrate=50000 / vbv_bufsize=62500 / nal_hrd=none / filler=0 / ip_ratio=1.40 / pb_ratio=1.30 / aq=3:0.65
Language                    : English
Default                     : Yes
Forced                      : No
Color range                 : Limited
Matrix coefficients         : BT.709

Audio #1
ID                          : 2
Format                      :
Format/Info                 : Digital Theater Systems
Codec ID                    : A_DTS
Duration                    : 2 h 9 min
Bit rate mode               : Constant
Bit rate                    : 1 509 kb/s
Channel(s)                  : 6 channels
Channel layout              : C L R Ls Rs LFE
Sampling rate               : 48.0 kHz
Frame rate                  : 93.750 FPS (512 SPF)
Bit depth                   : 24 bits
Compression mode            : Lossy
Stream size                 : 1.36 GiB (12%)
Title                       : DVO [Novyj], 5.1 1509 Kbps
Language                    : Ukrainian
Default                     : Yes
Forced                      : No

Audio #2
ID                          : 3
Format                      : AC-3
Format/Info                 : Audio Coding 3
Commercial name             : Dolby Digital
Codec ID                    : A_AC3
Duration                    : 2 h 9 min
Bit rate mode               : Constant
Bit rate                    : 640 kb/s
Channel(s)                  : 6 channels
Channel layout              : L R C LFE Ls Rs
Sampling rate               : 48.0 kHz
Frame rate                  : 31.250 FPS (1536 SPF)
Compression mode            : Lossy
Stream size                 : 593 MiB (5%)
Title                       : DVO [Novyj], 5.1 640 Kbps
Language                    : Ukrainian
Service kind                : Complete Main
Default                     : No
Forced                      : No

Audio #3
ID                          : 4
Format                      : AC-3
Format/Info                 : Audio Coding 3
Commercial name             : Dolby Digital
Codec ID                    : A_AC3
Duration                    : 2 h 9 min
Bit rate mode               : Constant
Bit rate                    : 192 kb/s
Channel(s)                  : 2 channels
Channel layout              : L R
Sampling rate               : 48.0 kHz
Frame rate                  : 31.250 FPS (1536 SPF)
Compression mode            : Lossy
Stream size                 : 178 MiB (1%)
Title                       : DVO [ICTV], 2.0 192 Kbps
Language                    : Ukrainian
Service kind                : Complete Main
Default                     : No
Forced                      : No

Audio #4
ID                          : 5
Format                      : AC-3
Format/Info                 : Audio Coding 3
Commercial name             : Dolby Digital
Codec ID                    : A_AC3
Duration                    : 2 h 9 min
Bit rate mode               : Constant
Bit rate                    : 192 kb/s
Channel(s)                  : 2 channels
Channel layout              : L R
Sampling rate               : 48.0 kHz
Frame rate                  : 31.250 FPS (1536 SPF)
Compression mode            : Lossy
Stream size                 : 178 MiB (1%)
Title                       : MVO [Ukraina], 2.0 192 Kbps
Language                    : Ukrainian
Service kind                : Complete Main
Default                     : No
Forced                      : No

Audio #5
ID                          : 6
Format                      : AC-3
Format/Info                 : Audio Coding 3
Commercial name             : Dolby Digital
Codec ID                    : A_AC3
Duration                    : 2 h 9 min
Bit rate mode               : Constant
Bit rate                    : 640 kb/s
Channel(s)                  : 6 channels
Channel layout              : L R C LFE Ls Rs
Sampling rate               : 48.0 kHz
Frame rate                  : 31.250 FPS (1536 SPF)
Compression mode            : Lossy
Stream size                 : 593 MiB (5%)
Title                       : Original, 5.1 640 Kbps
Language                    : English
Service kind                : Complete Main
Default                     : No
Forced                      : No

Audio #6
ID                          : 7
Format                      : AC-3
Format/Info                 : Audio Coding 3
Commercial name             : Dolby Digital
Codec ID                    : A_AC3
Duration                    : 2 h 9 min
Bit rate mode               : Constant
Bit rate                    : 192 kb/s
Channel(s)                  : 2 channels
Channel layout              : L R
Sampling rate               : 48.0 kHz
Frame rate                  : 31.250 FPS (1536 SPF)
Compression mode            : Lossy
Stream size                 : 178 MiB (1%)
Title                       : Commentary by Terry Gilliam and producer Charles Roven
Language                    : English
Service kind                : Complete Main
Default                     : No
Forced                      : No

Text #1
ID                          : 8
Format                      : UTF-8
Codec ID                    : S_TEXT/UTF8
Codec ID/Info               : UTF-8 Plain Text
Duration                    : 2 h 8 min
Bit rate                    : 112 b/s
Count of elements           : 1824
Stream size                 : 106 KiB (0%)
Title                       : Ukr Full [Netflix]
Language                    : Ukrainian
Default                     : No
Forced                      : No

Text #2
ID                          : 9
Format                      : UTF-8
Codec ID                    : S_TEXT/UTF8
Codec ID/Info               : UTF-8 Plain Text
Duration                    : 2 h 2 min
Bit rate                    : 70 b/s
Count of elements           : 1648
Stream size                 : 63.2 KiB (0%)
Title                       : Eng Full
Language                    : English
Default                     : No
Forced                      : No

Text #3
ID                          : 10
Format                      : UTF-8
Codec ID                    : S_TEXT/UTF8
Codec ID/Info               : UTF-8 Plain Text
Duration                    : 2 h 5 min
Bit rate                    : 72 b/s
Count of elements           : 1766
Stream size                 : 67.1 KiB (0%)
Title                       : Eng SDH
Language                    : English
Default                     : No
Forced                      : No

Text #4
ID                          : 11
Format                      : UTF-8
Codec ID                    : S_TEXT/UTF8
Codec ID/Info               : UTF-8 Plain Text
Duration                    : 2 h 9 min
Bit rate                    : 132 b/s
Count of elements           : 2219
Stream size                 : 126 KiB (0%)
Title                       : Commentary by Terry Gilliam and producer Charles Roven
Language                    : English
Default                     : No
Forced                      : No

Menu
00:00:00.000                : :The Volunteer
00:10:55.738                : :Baltimore -- April 1990
00:21:27.995                : :The Wrong Time
00:29:26.181                : :Monkey Business
00:42:04.188                : :Right on the Money
00:53:13.273                : :The Same Dream
01:06:31.570                : :Going After Jeffery
01:15:49.670                : :The Timeworn Threat
01:26:02.407                : :What's Real and What's Not
01:36:25.321                : :Seriously Crazy
01:46:31.635                : :The Movie Never Changes
01:57:31.544                : :You Can Still Be a Hero...

Код:
Log
[info]: frame I:1136  Avg QP:15.85  size:150577
[info]: frame P:37613 Avg QP:18.21  size: 78591
[info]: frame B:147586 Avg QP:20.60  size: 41299
[info]: consecutive B-frames:  1.6%  2.2%  5.2% 14.1% 18.6% 41.6%  9.6%  4.0%  3.3%
encoded 186335 frames, 7.89 fps, 9493.17 kb/s, duration 6:33:36.20


Код:
Notes                  : Few scenes debanded/deblocked, dirty lines fixed

Оригінал <---------->Цей ріп






Джерело: & &
Подяка -Star-Lord-'у за допомогу у створенні реліза.


Срібний реліз (на рейтинг впливає 50% завантаженого)
 Трекер:    Зареєстрований   

Завантажити / скачати фільм українською



відео для новачків



 Зареєстрований:   2021-01-15 19:46
 Розмір:   11.64 GB 
 Оцінка фільму:   10/10 (Голосів: 5)
 ЗАЛИШАЙТЕСЬ ЯКОМОГА ДОВШЕ НА РОЗДАЧІ! ЗАВАНТАЖИВ САМ - ДАЙ ЗАВАНТАЖИТИ ІНШИМ!
   
staf777 
Відео Гуртом - підтримка та поширення
Відео Гуртом - підтримка та поширення


З нами з: 16.11.16
Востаннє: 03.03.21
Повідомлень: 5071

2021-01-15 15:52  
є ж , 5.1 1509 навіщо 5.1
Anonymous 







2021-01-15 16:30  
staf777 написано:
навіщо

онови, будь ласка, свій реліз https://toloka.to/t102190 до ремастованої версії

leicheman 
Відео Гуртом - фільмокрай
Відео Гуртом - фільмокрай


З нами з: 03.07.14
Востаннє: 03.03.21
Повідомлень: 5936

2021-01-15 16:41  
staf777 написано:
є ж , 5.1 1509 навіщо 5.1

бо у ріпі 720р недоцільно такий звук пхати, він потрібен тільки у ремуксі.

Додано через 2 хвилини 9 секунд:
ще один укр.постер

staf777 
Відео Гуртом - підтримка та поширення
Відео Гуртом - підтримка та поширення


З нами з: 16.11.16
Востаннє: 03.03.21
Повідомлень: 5071

2021-01-15 17:58  
у ремуксі потрібен HD MA а у 720 та 1080 - це золотий стандарт якості Happy
-Star-Lord- 
VIP


З нами з: 09.08.18
Востаннє: 03.03.21
Повідомлень: 2424

2021-01-15 18:21  
DEL
leicheman 
Відео Гуртом - фільмокрай
Відео Гуртом - фільмокрай


З нами з: 03.07.14
Востаннє: 03.03.21
Повідомлень: 5936

2021-01-15 18:31  
staf777 написано:
а у 720 та 1080 - це золотий стандарт якості

Ті хто дивиться ріпи наврядчи мають якісну звукову апаратура для ДТС. А якщо і мають то нахіба вони вантажать ріпи 720р? Треба ремукси вантажити або 2-4к
Ще раз, недоцільно у ріпи 720р пхати ДТС, який може займати чверть, а іноді і половину розміру відеоряду.

bot 
робот


З нами з: 30.09.07
Востаннє: 26.05.05
Повідомлень: 27293

2021-01-15 19:46  
Тему перенесено з Анонси релізів до форуму Фільми в HD


igor911

staf777 
Відео Гуртом - підтримка та поширення
Відео Гуртом - підтримка та поширення


З нами з: 16.11.16
Востаннє: 03.03.21
Повідомлень: 5071

2021-01-15 20:01  
Цитата:
на хдклабі є ремукс з укр. -HD MA доріжкою.

Так бачив - розмір ріпа майже 50 гб без кацапскіх доріжок буде 40 гб - зараз місця обмаль - скоро буду робить тільки авц релізи бо видаляти свої релізи жалко

zeroentry 
Новенький


З нами з: 28.07.14
Востаннє: 01.03.21
Повідомлень: 1

2021-01-16 00:17  
leicheman написано:

Ті хто дивиться ріпи наврядчи мають якісну звукову апаратура для ДТС. А якщо і мають то нахіба вони вантажать ріпи 720р? Треба ремукси вантажити або 2-4к
Ще раз, недоцільно у ріпи 720р пхати ДТС, який може займати чверть, а іноді і половину розміру відеоряду.


Не треба так категорично - у мене проєктор тягне тільки 1080р і при цьому в мене полний звук атмос легко тяне (ресівер і докуя колош с сабом) - не те що дтс - і в загалі навіщо звішувати сине з м'яким ))) кароч - дтс наше усе! )

І-р 
Свій


З нами з: 21.07.16
Востаннє: 02.03.21
Повідомлень: 145

2021-01-16 00:22  
"його тримають за божевільного…" - калька з рос. "держат за сумасшедшего". Українською - "вважають божевільним".
therazer 
Новенький


З нами з: 29.06.16
Востаннє: 02.03.21
Повідомлень: 20

2021-01-17 00:56  
І-р
насправді "мають за божевільного". Тримають - правда таки калька і погана українська, але вважають божевільним то інший сенс.

мають за дурня
мають за божевільного
мають за дитину

Вважати божевільним - це досить сильна фраза, майже діагноз. А мати за божевільного означає побутове ставлення, сприйняття.

porto12 
Поважний учасник


З нами з: 28.10.08
Востаннє: 03.03.21
Повідомлень: 220

2021-01-17 18:20  
Anonymous написано:

примітка: ідентична #1, додана для сумісності з пристроями без підтримки


staf777 написано:
є ж , 5.1 1509 навіщо 5.1


staf777 Бо деякі smart tv не підтримують кодек. Тільки . Наприклад, у моделях Samsung, які вироблені у 2018 р. і далі, кодек не підтримується.

leicheman 
Відео Гуртом - фільмокрай
Відео Гуртом - фільмокрай


З нами з: 03.07.14
Востаннє: 03.03.21
Повідомлень: 5936

2021-01-28 20:43  
zeroentry написано:
Не треба так категорично - у мене проєктор тягне тільки 1080р

тут мова про 720р де доріжка у дтс може займати половини чи чверть розміру самого релізу!

Ваш часовий пояс: GMT + 2 Години

Нова тема   Відповісти