Дванадцять мавп / Twelve Monkeys (1995) 1080p H.265 3xUkr/Eng | Sub Ukr/Eng [Arrow Films Remastered]

Нові коментарі

Нова тема   Відповісти
Автор Повідомлення
Anonymous 







2021-01-15 00:02  
Дванадцять мавп / Twelve Monkeys (1995) 1080p H.265 3xUkr/Eng | Sub Ukr/Eng [Arrow Films Remastered]

Дванадцять мавп / Twelve Monkeys (1995) 1080p H.265 3xUkr/Eng | Sub Ukr/Eng [Arrow Films Remastered]


Жанр: фантастика, детектив, трилер
Країна: США
Кінокомпанія: Universal Pictures, Atlas Entertainment, Classico
Режисер: Террі Ґілліам [Terry Gilliam]
Актори: Брюс Віліс [Bruce Willis], Бред Піт [Brad Pitt], Медлін Стоу [Madeleine Stowe], Крістофер Пламмер [Christopher Plummer], Девід Морс [David Morse], Джозеф Міліто [Joseph Melito], Джон Седа [Jon Seda], Майкл Ченс [Michael Chance], Вернон Кемпбелл [Vernon Campbell], Г. Майкл Воллс [H. Michael Walls]

Сюжет:
Культовий, сюрреалістичний, науково-фантастичний трилер, що завоював прихильність глядачів не спецефектами, а високою якістю сюжету та акторською грою.

Події розгортаються у шаленому світі майбутнього. Люди майже вимерли від страшного вірусу, а та, що залишилися, живуть десь під землею. Дивні люди-вчені проводять досліди з переміщенням у часі. А щоб не сидіти півстоліття у в'язниці, багато хто згоден підписатися на участь у безрозсудному експерименті. Одним з таких піддослідних стає Джеймс Коул, який відправляється в небезпечну подорож в минуле, у 1996 рік. Він має допомогти вченим знайти джерело виникнення жахливого вірусу, що знищив людство і розкрити загадку таємничих «Дванадцяти мавп».

Одна біда, потрапивши в 90-і, Коул швидко опиняється у психіатричній лікарні, де його тримають за божевільного…

Тривалість: 02:09:31
Якість:

Відео:
кодек: H.265 (HEVC)
розмір кадру: 1920 x 1040
бітрейт: 11 141 кб/с
бітова глибина: 10 біт

Увага! Перед завантаженням переконайтесь, що ваш пристрій відтворення (та/або ПЗ) підтримує H.265 (HEVC)

Аудіо # 1:
мова: українська
озвучення: двоголосе закадрове
кодек: 5.1
бітрейт: 1510 кб/с
примітка: доріжка отримана шляхом накладання чистих голосів на центр декодованого -HD MA

Аудіо # 2:
мова: українська
озвучення: двоголосе закадрове
кодек: AC-3 2.0
бітрейт: 192 кб/с

Аудіо # 3:
мова: українська
озвучення: багатоголосе закадрове
кодек: AC-3 2.0
бітрейт: 192 кб/с

Аудіо # 4:
мова: англійська
озвучення: оригінал
кодек: 5.1
бітрейт: 1510 кб/с

Аудіо # 5:
мова: англійська
озвучення: оригінал | коментарі режисера Террі Гілліама та продюсера Чарльза Ровена
кодек: AC-3 2.0
бітрейт: 320 кб/с

Субтитри # 1: (Full from Netflix)
мова: українська
тип: програмні (м'які)
формат: *.srt

Субтитри # 2-4: (Full, SDH, Commentary by Terry Gilliam and producer Charles Roven)
мова: англійська
тип: програмні (м'які)
формат: *.srt


Інформація про файл
Код:
General
Unique ID                                : 213417346649312354063002906301779811374 (0xA08EAF9448440A99B1C2A351080E1C2E)
Complete name                            : Twelve Monkeys [Arrow Films Remastered] (1995) 1080p H.265 [3xUKR_ENG] [Hurtom].
Format                                   :
Format version                           : Version 4
File size                                : 13.5 GiB
Duration                                 : 2 h 9 min
Overall bit rate                         : 14.9 Mb/s
Movie name                               : Дванадцять мавп / Twelve Monkeys (1995) [Arrow Films Remastered]
Encoded date                             : UTC 2021-01-15 09:12:05
Writing application                      : v20.0.0 ('I Am The Sun') 64-bit
Writing library                          : libebml v1.3.5 + v1.4.8
Cover                                    : Yes
Attachments                              : Cover.jpg

Video
ID                                       : 1
Format                                   : HEVC
Format/Info                              : High Efficiency Video Coding
Format profile                           : Main [email protected]@High
Codec ID                                 : V_MPEGH/ISO/HEVC
Duration                                 : 2 h 9 min
Bit rate                                 : 11.1 Mb/s
Width                                    : 1 920 pixels
Height                                   : 1 040 pixels
Display aspect ratio                     : 1.85:1
Frame rate mode                          : Constant
Frame rate                               : 23.976 (24000/1001) FPS
Color space                              : YUV
Chroma subsampling                       : 4:2:0
Bit depth                                : 10 bits
Bits/(Pixel*Frame)                       : 0.233
Stream size                              : 10.1 GiB (75%)
Title                                    : Дванадцять мавп / Twelve Monkeys (1995) [Arrow Films Remastered]
Writing library                          : x265 3.4+4-g3ae3d7116:[Windows][GCC 10.2.0][64 bit] 10bit
Encoding settings                        : cpuid=1111039 / frame-threads=3 / numa-pools=8 / wpp / no-pmode / no-pme / no-psnr / no-ssim / log-level=2 / input-csp=1 / input-res=1920x1040 / interlace=0 / total-frames=186333 / level-idc=41 / high-tier=1 / uhd-bd=0 / ref=5 / no-allow-non-conformance / no-repeat-headers / annexb / no-aud / no-hrd / info / hash=0 / no-temporal-layers / open-gop / min-keyint=23 / keyint=240 / gop-lookahead=0 / bframes=9 / b-adapt=2 / b-pyramid / bframe-bias=0 / rc-lookahead=40 / lookahead-slices=0 / scenecut=40 / hist-scenecut=0 / radl=0 / no-splice / no-intra-refresh / ctu=64 / min-cu-size=8 / rect / amp / max-tu-size=32 / tu-inter-depth=4 / tu-intra-depth=4 / limit-tu=1 / rdoq-level=2 / dynamic-rd=0.00 / no-ssim-rd / signhide / no-tskip / nr-intra=0 / nr-inter=0 / no-constrained-intra / no-strong-intra-smoothing / max-merge=5 / limit-refs=3 / no-limit-modes / me=3 / subme=7 / merange=57 / temporal-mvp / no-frame-dup / no-hme / weightp / weightb / no-analyze-src-pics / deblock=-3:-3 / no-sao / no-sao-non-deblock / rd=6 / selective-sao=0 / no-early-skip / rskip / no-fast-intra / no-tskip-fast / no-cu-lossless / b-intra / no-splitrd-skip / rdpenalty=0 / psy-rd=2.00 / psy-rdoq=1.00 / no-rd-refine / no-lossless / cbqpoffs=0 / crqpoffs=0 / rc=crf / crf=19.7 / qcomp=0.60 / qpstep=4 / stats-write=0 / stats-read=0 / vbv-maxrate=50000 / vbv-bufsize=50000 / vbv-init=0.9 / crf-max=0.0 / crf-min=0.0 / ipratio=1.40 / pbratio=1.30 / aq-mode=1 / aq-strength=1.00 / no-cutree / zone-count=1 / zones: / start-frame=180552 / end-frame=186310 / qp=36 / no-strict-cbr / qg-size=32 / no-rc-grain / qpmax=69 / qpmin=0 / no-const-vbv / sar=1 / overscan=0 / videoformat=5 / range=0 / colorprim=2 / transfer=2 / colormatrix=2 / chromaloc=0 / display-window=0 / cll=0,0 / min-luma=0 / max-luma=1023 / log2-max-poc-lsb=8 / vui-timing-info / vui-hrd-info / slices=1 / no-opt-qp-pps / no-opt-ref-list-length-pps / no-multi-pass-opt-rps / scenecut-bias=0.00 / hist-threshold=0.01 / no-opt-cu-delta-qp / no-aq-motion / no-hdr10 / no-hdr10-opt / no-dhdr10-opt / no-idr-recovery-sei / analysis-reuse-level=0 / analysis-save-reuse-level=0 / analysis-load-reuse-level=0 / scale-factor=0 / refine-intra=0 / refine-inter=0 / refine-mv=1 / refine-ctu-distortion=0 / no-limit-sao / ctu-info=0 / no-lowpass-dct / refine-analysis-type=0 / copy-pic=1 / max-ausize-factor=1.0 / no-dynamic-refine / no-single-sei / no-hevc-aq / no-svt / no-field / qp-adaptation-range=1.00 / no-scenecut-aware-qpconformance-window-offsets / right=0 / bottom=0 / decoder-max-rate=0
Language                                 : English
Default                                  : Yes
Forced                                   : No

Audio #1
ID                                       : 2
Format                                   :
Format/Info                              : Digital Theater Systems
Codec ID                                 : A_DTS
Duration                                 : 2 h 9 min
Bit rate mode                            : Constant
Bit rate                                 : 1 509 kb/s
Channel(s)                               : 6 channels
Channel layout                           : C L R Ls Rs LFE
Sampling rate                            : 48.0 kHz
Frame rate                               : 93.750 FPS (512 SPF)
Bit depth                                : 24 bits
Compression mode                         : Lossy
Stream size                              : 1.36 GiB (10%)
Title                                    : / 5.1 Ch / 1509 kbps / DVO / Новий Канал
Language                                 : Ukrainian
Default                                  : Yes
Forced                                   : Yes

Audio #2
ID                                       : 3
Format                                   : AC-3
Format/Info                              : Audio Coding 3
Commercial name                          : Dolby Digital
Codec ID                                 : A_AC3
Duration                                 : 2 h 9 min
Bit rate mode                            : Constant
Bit rate                                 : 192 kb/s
Channel(s)                               : 2 channels
Channel layout                           : L R
Sampling rate                            : 48.0 kHz
Frame rate                               : 31.250 FPS (1536 SPF)
Compression mode                         : Lossy
Stream size                              : 178 MiB (1%)
Title                                    : AC-3 / 2.0 Ch / 192 kbps / DVO / ICTV
Language                                 : Ukrainian
Service kind                             : Complete Main
Default                                  : No
Forced                                   : No

Audio #3
ID                                       : 4
Format                                   : AC-3
Format/Info                              : Audio Coding 3
Commercial name                          : Dolby Digital
Codec ID                                 : A_AC3
Duration                                 : 2 h 9 min
Bit rate mode                            : Constant
Bit rate                                 : 192 kb/s
Channel(s)                               : 2 channels
Channel layout                           : L R
Sampling rate                            : 48.0 kHz
Frame rate                               : 31.250 FPS (1536 SPF)
Compression mode                         : Lossy
Stream size                              : 178 MiB (1%)
Title                                    : AC-3 / 2.0 Ch / 192 kbps / MVO / Канал "Україна"
Language                                 : Ukrainian
Service kind                             : Complete Main
Default                                  : No
Forced                                   : No

Audio #4
ID                                       : 5
Format                                   :
Format/Info                              : Digital Theater Systems
Codec ID                                 : A_DTS
Duration                                 : 2 h 9 min
Bit rate mode                            : Constant
Bit rate                                 : 1 509 kb/s
Channel(s)                               : 6 channels
Channel layout                           : C L R Ls Rs LFE
Sampling rate                            : 48.0 kHz
Frame rate                               : 93.750 FPS (512 SPF)
Bit depth                                : 24 bits
Compression mode                         : Lossy
Stream size                              : 1.36 GiB (10%)
Title                                    : / 5.1 Ch / 1509 kbps / Original
Language                                 : English
Default                                  : No
Forced                                   : No

Audio #5
ID                                       : 6
Format                                   : AC-3
Format/Info                              : Audio Coding 3
Commercial name                          : Dolby Digital
Codec ID                                 : A_AC3
Duration                                 : 2 h 9 min
Bit rate mode                            : Constant
Bit rate                                 : 320 kb/s
Channel(s)                               : 2 channels
Channel layout                           : L R
Sampling rate                            : 48.0 kHz
Frame rate                               : 31.250 FPS (1536 SPF)
Compression mode                         : Lossy
Stream size                              : 296 MiB (2%)
Title                                    : AC-3 / 2.0 Ch / 320 kbps / Original / Commentary by Terry Gilliam and producer Charles Roven
Language                                 : English
Service kind                             : Complete Main
Default                                  : No
Forced                                   : No

Text #1
ID                                       : 7
Format                                   : UTF-8
Codec ID                                 : S_TEXT/UTF8
Codec ID/Info                            : UTF-8 Plain Text
Duration                                 : 2 h 8 min
Bit rate                                 : 112 b/s
Count of elements                        : 1823
Stream size                              : 106 KiB (0%)
Title                                    : Full from Netflix
Language                                 : Ukrainian
Default                                  : No
Forced                                   : No

Text #2
ID                                       : 8
Format                                   : UTF-8
Codec ID                                 : S_TEXT/UTF8
Codec ID/Info                            : UTF-8 Plain Text
Duration                                 : 2 h 5 min
Bit rate                                 : 72 b/s
Count of elements                        : 1811
Stream size                              : 66.5 KiB (0%)
Title                                    : Full
Language                                 : English
Default                                  : No
Forced                                   : No

Text #3
ID                                       : 9
Format                                   : UTF-8
Codec ID                                 : S_TEXT/UTF8
Codec ID/Info                            : UTF-8 Plain Text
Duration                                 : 2 h 6 min
Bit rate                                 : 75 b/s
Count of elements                        : 1958
Stream size                              : 70.3 KiB (0%)
Title                                    : SDH
Language                                 : English
Default                                  : No
Forced                                   : No

Text #4
ID                                       : 10
Format                                   : UTF-8
Codec ID                                 : S_TEXT/UTF8
Codec ID/Info                            : UTF-8 Plain Text
Duration                                 : 2 h 9 min
Bit rate                                 : 132 b/s
Count of elements                        : 2219
Stream size                              : 126 KiB (0%)
Title                                    : Commentary by Terry Gilliam and producer Charles Roven
Language                                 : English
Default                                  : No
Forced                                   : No

Menu
00:00:00.000                             : en:Main Title
00:01:52.070                             : en:The "Volunteer"
00:08:33.137                             : en:An Opportunity
00:10:56.697                             : en:Baltimore - April 1990
00:15:59.249                             : en:The Deluxe Mental Hospital Tour
00:21:27.994                             : en:The Wrong Time
00:25:17.306                             : en:Colonics for everyone!
00:29:27.139                             : en:Monkey Business
00:33:33.093                             : en:Emancipation
00:36:28.435                             : en:Bad Judgment
00:37:54.520                             : en:Science Ain't an Exact Science
00:39:58.728                             : en:Another Chance
00:42:04.186                             : en:Right on the Money
00:44:43.095                             : en:Baltimore - November 1996
00:47:45.319                             : en:It's in Philapelphia...
00:53:47.805                             : en:The Same Dream
00:57:12.093                             : en:Cole's Mission
00:58:48.189                             : en:They're Here!
01:01:26.472                             : en:All I See Are Dead People...
01:03:22.462                             : en:The Animal Activists
01:06:31.651                             : en:Going After Jeffrey
01:10:06.699                             : en:The Timeworn Threat
01:15:49.750                             : en:It Was My Idea?
01:18:25.989                             : en:The Normal Reaction
01:21:03.229                             : en:You Are My Insanity
01:23:41.012                             : en:Tell Me What I Whant...
01:25:12.270                             : en:The Man in the Picture
01:26:35.394                             : en:What's Real and What's Not
01:29:02.500                             : en:The Path of the Virus
01:30:59.658                             : en:Mentally Divergent
01:32:37.297                             : en:Seriously Crazy
01:34:33.372                             : en:I Want to Stay Here...
01:39:24.245                             : en:The Pimp and the Crazy Dentist
01:41:38.546                             : en:The Message
01:44:31.427                             : en:The Monkey Speaks
01:46:31.714                             : en:The Movie Never Changes
01:49:19.214                             : en:It Was Always You...
01:50:56.228                             : en:The Army of Twelve Monkeys Factor
01:52:46.921                             : en:This is My Dream!
01:54:29.607                             : en:Someone Else
01:56:31.938                             : en:You Can Still Be a Hero
01:59:04.965                             : en:It Doesn't Even Have an Odor...
02:01:06.253                             : en:Full Circle
02:04:11.897                             : en:Insurance
02:05:30.642                             : en:End Titles
Лог кодування
Код:
x265 [info]: frame I: 789, Avg QP:18.04 kb/s: 28319.41
x265 [info]: frame P: 39880, Avg QP:19.76 kb/s: 21982.98
x265 [info]: frame B: 145664, Avg QP:21.36 kb/s: 8078.32
x265 [info]: Weighted P-Frames: Y:5.1% UV:4.2%
x265 [info]: Weighted B-Frames: Y:3.2% UV:2.4%
x265 [info]: consecutive B-frames: 2.1% 1.9% 3.6% 53.8% 8.6% 27.9% 1.1% 0.8% 0.1% 0.1%
x265 [info]: encoded 186333 frames in 195933.23s (0.95 fps), 11139.98 kb/s, Avg QP:21.00
Світлини




Джерело: & &
Особиста оцінка: 0 - не дивився

Подяка пану leicheman за надані укр. субтитри з Нетфлікс.


Срібний реліз (на рейтинг впливає 50% завантаженого)
 Трекер:    Зареєстрований   

Завантажити / скачати фільм українською



відео для новачків



 Зареєстрований:   2021-01-15 11:27
 Розмір:   13.45 GB 
 Оцінка фільму:   9/10 (Голосів: 5)
   
Ваш часовий пояс: GMT + 2 Години

Нова тема   Відповісти