Подорож принца / Le Voyage du Prince (2019) 1080p Ukr/Fre

Нові коментарі

Нова тема   Відповісти
Автор Повідомлення
Anonymous 







2021-01-14 22:03  
Подорож принца / Le Voyage du Prince (2019) 1080p Ukr/Fre

Подорож принца / Le Voyage du Prince (2019) 1080p Ukr/Fre


Жанр: анімаційний
Країна: Люксембург, Франція



Кінокомпанія: Blue Spirit Animation, Mélusine Productions, Blue Spirit Studio
Режисер: Жан-Франсуа Лаґйоні, Ксав’є Пікар
Актори: Селія Росіч, Катрін Лафонд, Гебріель Ле Дозе, Енріко Ді Джованні, Тома Саґольс

Сюжет:
Старий мавпячий Принц сідає на мілину біля невідомого берега. Пораненим і загубленим його знаходить 12-річний Том. Його батьки – пара учених, яких вигнали зі спільноти, бо вони вірять в існування інших мавпячих цивілізацій. З допомогою Тома, Принц відкриває суспільство, про яке він нічого не знає, тоді як батьки хлопчика вирішують використати його, щоб довести істинність своєї теорії…


Тривалість: 01:16:51
Якість:
Відео:
кодек:
розмір кадру: 1916 x 1072
бітрейт: 5152 кб/с

Аудіо # 1:
мова: українська
переклад: двоголосий закадровий | Cinemaker
кодек: 2.0
бітрейт: 192 кб/с
Інформація про озвучення
Керівник проекту: Андрій Глуховський
Переклад Анастасії Тихонової
Режисер: Ольга Фокіна
Ролі озвучували: Андрій Твердак та Юлія Перенчук

Українською мовою озвучено студією Cinemaker.
Аудіо # 2:
мова: французька
переклад: оригінал
кодек: 5.1
бітрейт: 384 кб/с
Info
Format :
Format version : Version 4
File size : 3.08 GiB
Duration : 1 h 16 min
Overall bit rate : 5 731 kb/s
Encoded date : UTC 2020-10-15 17:58:27
Writing application : v47.0.0 ('Black Flag') 64-bit
Writing library : libebml v1.3.10 + v1.5.2
Cover : Yes
Attachments : cover.jpg

Video
ID : 1
Format : AVC
Format/Info : Advanced Video Codec
Format profile : [email protected]
Format settings : CABAC / 4 Ref Frames
Format settings, CABAC : Yes
Format settings, Reference fra : 4 frames
Codec ID : V_MPEG4/ISO/AVC
Duration : 1 h 16 min
Bit rate : 5 152 kb/s
Width : 1 916 pixels
Height : 1 072 pixels
Display aspect ratio : 16:9
Frame rate mode : Constant
Frame rate : 23.976 (23976/1000) FPS
Color space : YUV
Chroma subsampling : 4:2:0
Bit depth : 8 bits
Scan type : Progressive
Bits/(Pixel*Frame) : 0.105
Stream size : 2.77 GiB (90%)
Language : French
Default : Yes
Forced : No
Color range : Limited
Color primaries : BT.709
Transfer characteristics : BT.709
Matrix coefficients : BT.709

Audio #1
ID : 2
Format : AC-3
Format/Info : Audio Coding 3
Commercial name : Dolby Digital
Codec ID : A_AC3
Duration : 1 h 16 min
Bit rate mode : Constant
Bit rate : 192 kb/s
Channel(s) : 2 channels
Channel layout : L R
Sampling rate : 48.0 kHz
Frame rate : 31.250 FPS (1536 SPF)
Bit depth : 16 bits
Compression mode : Lossy
Delay relative to video : -42 ms
Stream size : 106 MiB (3%)
Language : Ukrainian
Service kind : Complete Main
Default : Yes
Forced : No

Audio #2
ID : 3
Format : AC-3
Format/Info : Audio Coding 3
Commercial name : Dolby Digital
Codec ID : A_AC3
Duration : 1 h 16 min
Bit rate mode : Constant
Bit rate : 384 kb/s
Channel(s) : 6 channels
Channel layout : L R C LFE Ls Rs
Sampling rate : 48.0 kHz
Frame rate : 31.250 FPS (1536 SPF)
Bit depth : 16 bits
Compression mode : Lossy
Delay relative to video : -42 ms
Stream size : 211 MiB (7%)
Language : French
Service kind : Complete Main
Default : No
Forced : No

Menu
00:00:00.000 : en:1
00:05:03.928 : en:2
00:10:02.393 : en:3
00:15:12.536 : en:4
00:19:46.893 : en:5
00:25:26.190 : en:6
00:29:57.210 : en:7
00:35:02.430 : en:8
00:41:25.855 : en:9
00:46:16.603 : en:10
00:53:02.425 : en:11
00:57:11.131 : en:12
01:02:28.739 : en:13
01:07:32.584 : en:14
01:14:06.519 : en:15
Скріншоти












Джерело:


 Трекер:    Зареєстрований   

Завантажити / скачати мультфільм українською



відео для новачків



 Зареєстрований:   2021-01-14 22:03
 Розмір:   3.08 GB 
 Оцінка мультфільму:   10/10 (Голосів: 2)
   
Ваш часовий пояс: GMT + 2 Години

Нова тема   Відповісти