Сутичка (Сірий) / The Grey (2011) [Open Matte] 1080p H.265 4xUkr/Eng | Sub Ukr/Eng

Нові коментарі

Нова тема   Відповісти
Автор Повідомлення
Anonymous 







2021-01-14 12:42  
Сутичка (Сірий) / The Grey (2011) [Open Matte] 1080p H.265 4xUkr/Eng | Sub Ukr/Eng

Сутичка (Сірий) / The Grey (2011) [Open Matte] 1080p H.265 4xUkr/Eng | Sub Ukr/Eng


Жанр: екшн, пригодницький, драма, трилер
Країна: США
Кінокомпанія: Open Road Films (II), Inferno Distribution, LD Entertainment
Режисер: Джо Карнаган / Joe Carnahan
Актори: Ліам Нісон / Liam Neeson, Френк Ґрілло / Frank Grillo, Дермот Малруні / Dermot Mulroney, Даллас Робертс / Dallas Roberts, Джо Андерсон / Joe Anderson, Нонсо Анозі / Nonso Anozie, Джеймс Бедж Дейл / James Badge Dale, Бен Ернандес Брей / Ben Hernandez Bray, Енн Опеншов / Anne Openshaw, Пітер Ґірґес / Peter Girges та інші.

Сюжет:
На Алясці зазнав краху літак, і пасажири, що вижили, опинилися в полоні безлюдної снігової пустелі, де тільки зграя вовків оживляє краєвид. Люди хочуть вижити будь-якою ціною, і на них чекає смертельна сутичка…

Тривалість: 01:57:08
Якість: [Open Matte]

Відео:
кодек: H.265 (HEVC)
розмір кадру: 1920 x 1080
бітрейт: 9 045 кб/с
бітова глибина: 10 біт

Увага! Перед завантаженням переконайтесь, що ваш пристрій відтворення (та/або ПЗ) підтримує H.265 (HEVC)

Аудіо # 1:
мова: українська
озвучення: багатоголосе закадрове
кодек: AC-3 2.0 (стерео)
бітрейт: 192 кб/с

Аудіо # 2:
мова: українська
озвучення: багатоголосе закадрове
кодек: AC-3 2.0 (стерео)
бітрейт: 192 кб/с

Аудіо # 3:
мова: українська
озвучення: багатоголосе закадрове
кодек: AC-3 2.0
бітрейт: 192 кб/с

Аудіо # 4:
мова: українська
озвучення: двоголосе закадрове
кодек: AC-3 2.0
бітрейт: 192 кб/с

Аудіо # 5:
мова: англійська
озвучення: оригінал
кодек: AC-3 5.1
бітрейт: 640 кб/с

Субтитри # 1: (Full)
мова: українська
тип: програмні (м'які)
формат: *.srt

Субтитри # 2-3: (Full, SDH)
мова: англійська
тип: програмні (м'які)
формат: *.srt


Інформація про файл
Код:
General
Unique ID                                : 292332062912990331896513122933399468182 (0xDBED1B7C65099108333C941A3041B896)
Complete name                            : The Grey (2011) [Open Matte] 1080p H.265 [4xUKR_ENG] [Hurtom].
Format                                   :
Format version                           : Version 4
File size                                : 8.56 GiB
Duration                                 : 1 h 57 min
Overall bit rate                         : 10.5 Mb/s
Movie name                               : Сутичка (Сірий) / The Grey (2011) [Open Matte]
Encoded date                             : UTC 2021-01-14 10:33:12
Writing application                      : v20.0.0 ('I Am The Sun') 64-bit
Writing library                          : libebml v1.3.5 + v1.4.8
Cover                                    : Yes
Attachments                              : Cover.png

Video
ID                                       : 1
Format                                   : HEVC
Format/Info                              : High Efficiency Video Coding
Format profile                           : Main [email protected]@High
Codec ID                                 : V_MPEGH/ISO/HEVC
Duration                                 : 1 h 57 min
Bit rate                                 : 9 045 kb/s
Width                                    : 1 920 pixels
Height                                   : 1 080 pixels
Display aspect ratio                     : 16:9
Frame rate mode                          : Constant
Frame rate                               : 23.976 (23976/1000) FPS
Original frame rate                      : 23.976 (24000/1001) FPS
Color space                              : YUV
Chroma subsampling                       : 4:2:0
Bit depth                                : 10 bits
Bits/(Pixel*Frame)                       : 0.182
Stream size                              : 7.40 GiB (86%)
Title                                    : Сутичка (Сірий) / The Grey (2011) [Open Matte]
Writing library                          : x265 3.4+12-g9103319fc:[Windows][GCC 10.2.0][64 bit] 10bit
Encoding settings                        : cpuid=1111039 / frame-threads=4 / numa-pools=16 / wpp / no-pmode / no-pme / no-psnr / no-ssim / log-level=2 / input-csp=1 / input-res=1920x1080 / interlace=0 / total-frames=168505 / level-idc=41 / high-tier=1 / uhd-bd=0 / ref=5 / no-allow-non-conformance / no-repeat-headers / annexb / no-aud / no-hrd / info / hash=0 / no-temporal-layers / open-gop / min-keyint=23 / keyint=240 / gop-lookahead=0 / bframes=11 / b-adapt=2 / b-pyramid / bframe-bias=0 / rc-lookahead=60 / lookahead-slices=1 / scenecut=40 / hist-scenecut=0 / radl=0 / no-splice / no-intra-refresh / ctu=32 / min-cu-size=8 / rect / amp / max-tu-size=32 / tu-inter-depth=4 / tu-intra-depth=4 / limit-tu=1 / rdoq-level=1 / dynamic-rd=0.00 / no-ssim-rd / signhide / no-tskip / nr-intra=0 / nr-inter=0 / no-constrained-intra / no-strong-intra-smoothing / max-merge=5 / limit-refs=0 / no-limit-modes / me=3 / subme=7 / merange=57 / temporal-mvp / no-frame-dup / no-hme / weightp / weightb / no-analyze-src-pics / deblock=-2:-2 / no-sao / no-sao-non-deblock / rd=6 / selective-sao=0 / no-early-skip / no-rskip / no-fast-intra / no-tskip-fast / no-cu-lossless / b-intra / no-splitrd-skip / rdpenalty=0 / psy-rd=2.00 / psy-rdoq=1.00 / no-rd-refine / no-lossless / cbqpoffs=0 / crqpoffs=0 / rc=crf / crf=20.7 / qcomp=0.70 / qpstep=4 / stats-write=0 / stats-read=0 / vbv-maxrate=50000 / vbv-bufsize=50000 / vbv-init=0.9 / crf-max=0.0 / crf-min=0.0 / ipratio=1.40 / pbratio=1.30 / aq-mode=2 / aq-strength=1.00 / no-cutree / zone-count=0 / no-strict-cbr / qg-size=32 / no-rc-grain / qpmax=69 / qpmin=0 / no-const-vbv / sar=1 / overscan=0 / videoformat=5 / range=0 / colorprim=1 / transfer=1 / colormatrix=1 / chromaloc=0 / display-window=0 / cll=0,0 / min-luma=0 / max-luma=1023 / log2-max-poc-lsb=8 / vui-timing-info / vui-hrd-info / slices=1 / no-opt-qp-pps / no-opt-ref-list-length-pps / no-multi-pass-opt-rps / scenecut-bias=0.05 / hist-threshold=0.01 / no-opt-cu-delta-qp / no-aq-motion / no-hdr10 / no-hdr10-opt / no-dhdr10-opt / no-idr-recovery-sei / analysis-reuse-level=0 / analysis-save-reuse-level=0 / analysis-load-reuse-level=0 / scale-factor=0 / refine-intra=0 / refine-inter=0 / refine-mv=0 / refine-ctu-distortion=0 / no-limit-sao / ctu-info=0 / no-lowpass-dct / refine-analysis-type=0 / copy-pic=1 / max-ausize-factor=1.0 / no-dynamic-refine / no-single-sei / no-hevc-aq / no-svt / no-field / qp-adaptation-range=1.00 / no-scenecut-aware-qpconformance-window-offsets / right=0 / bottom=0 / decoder-max-rate=0
Language                                 : English
Default                                  : Yes
Forced                                   : No
Color range                              : Limited
Color primaries                          : BT.709
Transfer characteristics                 : BT.709
Matrix coefficients                      : BT.709

Audio #1
ID                                       : 2
Format                                   : AC-3
Format/Info                              : Audio Coding 3
Commercial name                          : Dolby Digital
Codec ID                                 : A_AC3
Duration                                 : 1 h 57 min
Bit rate mode                            : Constant
Bit rate                                 : 192 kb/s
Channel(s)                               : 2 channels
Channel layout                           : L R
Sampling rate                            : 48.0 kHz
Frame rate                               : 31.250 FPS (1536 SPF)
Compression mode                         : Lossy
Stream size                              : 161 MiB (2%)
Title                                    : AC-3 / 2.0 Ch / 192 kbps / MVO / Cine+ [stereo]
Language                                 : Ukrainian
Service kind                             : Complete Main
Default                                  : Yes
Forced                                   : Yes

Audio #2
ID                                       : 3
Format                                   : AC-3
Format/Info                              : Audio Coding 3
Commercial name                          : Dolby Digital
Codec ID                                 : A_AC3
Duration                                 : 1 h 57 min
Bit rate mode                            : Constant
Bit rate                                 : 192 kb/s
Channel(s)                               : 2 channels
Channel layout                           : L R
Sampling rate                            : 48.0 kHz
Frame rate                               : 31.250 FPS (1536 SPF)
Compression mode                         : Lossy
Stream size                              : 161 MiB (2%)
Title                                    : AC-3 / 2.0 Ch / 192 kbps / MVO / Інтер [stereo]
Language                                 : Ukrainian
Service kind                             : Complete Main
Default                                  : No
Forced                                   : No

Audio #3
ID                                       : 4
Format                                   : AC-3
Format/Info                              : Audio Coding 3
Commercial name                          : Dolby Digital
Codec ID                                 : A_AC3
Duration                                 : 1 h 57 min
Bit rate mode                            : Constant
Bit rate                                 : 192 kb/s
Channel(s)                               : 2 channels
Channel layout                           : L R
Sampling rate                            : 48.0 kHz
Frame rate                               : 31.250 FPS (1536 SPF)
Compression mode                         : Lossy
Stream size                              : 161 MiB (2%)
Title                                    : AC-3 / 2.0 Ch / 192 kbps / MVO / 1+1
Language                                 : Ukrainian
Service kind                             : Complete Main
Default                                  : No
Forced                                   : No

Audio #4
ID                                       : 5
Format                                   : AC-3
Format/Info                              : Audio Coding 3
Commercial name                          : Dolby Digital
Codec ID                                 : A_AC3
Duration                                 : 1 h 57 min
Bit rate mode                            : Constant
Bit rate                                 : 192 kb/s
Channel(s)                               : 2 channels
Channel layout                           : L R
Sampling rate                            : 48.0 kHz
Frame rate                               : 31.250 FPS (1536 SPF)
Compression mode                         : Lossy
Stream size                              : 161 MiB (2%)
Title                                    : AC-3 / 2.0 Ch / 192 kbps / DVO / UAVoice
Language                                 : Ukrainian
Service kind                             : Complete Main
Default                                  : No
Forced                                   : No

Audio #5
ID                                       : 6
Format                                   : AC-3
Format/Info                              : Audio Coding 3
Commercial name                          : Dolby Digital
Codec ID                                 : A_AC3
Duration                                 : 1 h 57 min
Bit rate mode                            : Constant
Bit rate                                 : 640 kb/s
Channel(s)                               : 6 channels
Channel layout                           : L R C LFE Ls Rs
Sampling rate                            : 48.0 kHz
Frame rate                               : 31.250 FPS (1536 SPF)
Compression mode                         : Lossy
Stream size                              : 536 MiB (6%)
Title                                    : AC-3 / 5.1 Ch / 640 kbps / Original
Language                                 : English
Service kind                             : Complete Main
Default                                  : No
Forced                                   : No

Text #1
ID                                       : 7
Format                                   : UTF-8
Codec ID                                 : S_TEXT/UTF8
Codec ID/Info                            : UTF-8 Plain Text
Duration                                 : 1 h 48 min
Bit rate                                 : 54 b/s
Count of elements                        : 903
Stream size                              : 42.9 KiB (0%)
Title                                    : Full
Language                                 : Ukrainian
Default                                  : No
Forced                                   : No

Text #2
ID                                       : 8
Format                                   : UTF-8
Codec ID                                 : S_TEXT/UTF8
Codec ID/Info                            : UTF-8 Plain Text
Duration                                 : 1 h 47 min
Bit rate                                 : 39 b/s
Count of elements                        : 1083
Stream size                              : 30.9 KiB (0%)
Title                                    : Full
Language                                 : English
Default                                  : No
Forced                                   : No

Text #3
ID                                       : 9
Format                                   : UTF-8
Codec ID                                 : S_TEXT/UTF8
Codec ID/Info                            : UTF-8 Plain Text
Duration                                 : 1 h 56 min
Bit rate                                 : 42 b/s
Count of elements                        : 1272
Stream size                              : 36.0 KiB (0%)
Title                                    : SDH
Language                                 : English
Default                                  : No
Forced                                   : No

Menu
00:00:00.000                             : en:A job
00:09:30.361                             : en:Turbulence
00:15:24.715                             : en:Help me
00:26:28.670                             : en:Wolves
00:35:30.044                             : en:To the trees
00:43:30.149                             : en:The alpha
00:49:38.433                             : en:Dead is dead
00:57:01.042                             : en:Blizzard
01:11:31.912                             : en:Beat that
01:24:16.259                             : en:Hold your breath
01:33:33.899                             : en:Into the fray
01:42:03.325                             : en:End credits
Лог кодування
Код:
x265 [info]: frame I: 1480, Avg QP:17.55 kb/s: 28429.47
x265 [info]: frame P: 32005, Avg QP:18.98 kb/s: 17031.45
x265 [info]: frame B: 135020, Avg QP:21.62 kb/s: 6938.11
x265 [info]: Weighted P-Frames: Y:11.9% UV:8.7%
x265 [info]: Weighted B-Frames: Y:14.8% UV:11.6%
x265 [info]: consecutive B-frames: 9.6% 4.7% 7.8% 22.0% 10.0% 22.6% 7.6% 11.2% 2.1% 1.3% 0.5% 0.6%

encoded 168505 frames in 303327.71s (0.56 fps), 9043.95 kb/s, Avg QP:21.08
Світлини




Джерело: &
Особиста оцінка: 0 - не дивився


 Трекер:    Зареєстрований   

Завантажити / скачати фільм українською



відео для новачків



 Зареєстрований:   2021-01-14 12:42
 Розмір:   8.56 GB 
 Оцінка фільму:   9.3/10 (Голосів: 3)
   
Інші релізи
   Сутичка (Сірий) / The Grey (2011) AVC 4xUkr/Eng | Sub Ukr/Eng Sando7  4 / 0   3.17 GB   2019-09-19 10:21 
   Сутичка (Сірий) / The Grey (2011) 2xUkr/Eng | Sub Ukr/Eng Arsenfpu  7 / 0   2.14 GB   2017-09-23 20:58 
   Сірий / The Grey (2011) 1080p [Open Matte] 2xUkr/Eng | Sub Ukr/Eng staf777  0 / 0   15.18 GB   2016-12-25 15:44 
   Сірий / The Grey (2011) 2хUkr patriot2305  1 / 0   1.46 GB   2012-11-06 19:51 
   Сірий / The Grey (2011) 720p 2xUkr/Eng | Sub Ukr/Eng AngryBirdsUA  1 / 0   5.86 GB   2012-11-05 19:11 
   Сірий / The Grey (2011) 2xUkr/Eng | Sub Ukr/Eng AngryBirdsUA  2 / 0   2.19 GB   2012-11-04 17:23 
   Сірий / The Grey (2011) Ukr/Eng | Sub Ukr/Eng BOOGud  0 / 0   2.08 GB   2012-10-06 21:39 
Ваш часовий пояс: GMT + 2 Години

Нова тема   Відповісти