Павутиння брехні / Random Hearts (1999) 1080p H.265 2xUkr/Eng | Sub Ukr/Eng

Нові коментарі

Нова тема   Відповісти
Автор Повідомлення
Anonymous 







2021-01-14 11:59  
Павутиння брехні / Random Hearts (1999) 1080p H.265 2xUkr/Eng | Sub Ukr/Eng

Павутиння брехні / Random Hearts (1999) 1080p H.265 2xUkr/Eng | Sub Ukr/Eng


Жанр: драма, мелодрама, детектив
Країна: США
Кінокомпанія: Columbia Pictures Corporation, Global Entertainment Productions GmbH & Company Medien KG, Mirage Enterprises
Режисер: Сідні Полак
Актори: Гаррісон Форд, Крістін Скотт Томас, Чарльз С. Даттон, Бонні Хант, Денніс Хейсберт, Сідні Поллак, Річард Дженкінс, Пол Гілфойл, Сюзанна Томпсон, Пітер Койот, Ділан Бейкер

Сюжет:
В результаті авіакатастрофи сержант поліції Датч Ван Ден Брок втратив дружину, а жінка - конгресмен Кей Чандлер - чоловіка. Але ці смерті були лише першою ниткою в непередбачуваному клубку страшних відкриттів. Разом з потерпілим крах авіалайнером розбилися і їх життя, які виявилися майстерно сплетеною павутиною брехні. Тепер двоє абсолютно різних людей, об'єднані загальною трагедією, наближаються до заповітної розгадки...

Тривалість: 02:12:38
Якість:

Відео:
кодек: H.265 (HEVC)
розмір кадру: 1920 x 1038
бітрейт: 10 795 кб/с
бітова глибина: 10 біт

Увага! Перед завантаженням переконайтесь, що ваш пристрій відтворення (та/або ПЗ) підтримує H.265 (HEVC)

Аудіо # 1:
мова: українська
озвучення: багатоголосе закадрове
кодек: 5.0
бітрейт: 1510 кб/с
примітка: доріжка отримана шляхом накладення чистого голосу на центр англійської доріжки

Аудіо # 2:
мова: українська
озвучення: багатоголосе закадрове ,
кодек: AC-3 2.0
бітрейт: 192 кб/с

Аудіо # 3:
мова: англійська
озвучення: оригінал
кодек: 5.0
бітрейт: 1510 кб/с

Аудіо # 4:
мова: англійська
озвучення: оригінал | коментарі
кодек: AC-3 2.0
бітрейт: 256 кб/с

Субтитри # 1-2: (Forced, Full from Netflix)
мова: українська
тип: програмні (м'які)
формат: *.srt

Субтитри # 3-4: (Full, SDH)
мова: англійська
тип: програмні (м'які)
формат: *.srt


Інформація про файл
Код:
General
Unique ID                                : 54155887614939403877866258690751040404 (0x28BE0B686E768044DF1B46662C438B94)
Complete name                            : Random Hearts (1999) 1080p H.265 [2xUKR_ENG] [Hurtom].
Format                                   :
Format version                           : Version 4
File size                                : 13.2 GiB
Duration                                 : 2 h 12 min
Overall bit rate                         : 14.3 Mb/s
Movie name                               : Павутиння брехні / Random Hearts (1999)
Encoded date                             : UTC 2021-01-14 08:54:31
Writing application                      : v20.0.0 ('I Am The Sun') 64-bit
Writing library                          : libebml v1.3.5 + v1.4.8
Cover                                    : Yes
Attachments                              : Cover.jpg

Video
ID                                       : 1
Format                                   : HEVC
Format/Info                              : High Efficiency Video Coding
Format profile                           : Main [email protected]@High
Codec ID                                 : V_MPEGH/ISO/HEVC
Duration                                 : 2 h 12 min
Bit rate                                 : 10.8 Mb/s
Width                                    : 1 920 pixels
Height                                   : 1 038 pixels
Display aspect ratio                     : 1.85:1
Frame rate mode                          : Constant
Frame rate                               : 23.976 (24000/1001) FPS
Color space                              : YUV
Chroma subsampling                       : 4:2:0
Bit depth                                : 10 bits
Bits/(Pixel*Frame)                       : 0.226
Stream size                              : 10.0 GiB (76%)
Title                                    : Павутиння брехні / Random Hearts (1999)
Writing library                          : x265 3.4+4-g3ae3d7116:[Windows][GCC 10.2.0][64 bit] 10bit
Encoding settings                        : cpuid=1111039 / frame-threads=3 / numa-pools=12 / wpp / no-pmode / no-pme / no-psnr / no-ssim / log-level=2 / input-csp=1 / input-res=1920x1038 / interlace=0 / total-frames=190823 / level-idc=41 / high-tier=1 / uhd-bd=0 / ref=5 / no-allow-non-conformance / no-repeat-headers / annexb / no-aud / no-hrd / info / hash=0 / no-temporal-layers / open-gop / min-keyint=23 / keyint=240 / gop-lookahead=0 / bframes=13 / b-adapt=2 / b-pyramid / bframe-bias=0 / rc-lookahead=40 / lookahead-slices=0 / scenecut=40 / hist-scenecut=0 / radl=0 / no-splice / no-intra-refresh / ctu=64 / min-cu-size=8 / rect / amp / max-tu-size=32 / tu-inter-depth=4 / tu-intra-depth=4 / limit-tu=1 / rdoq-level=2 / dynamic-rd=0.00 / no-ssim-rd / signhide / no-tskip / nr-intra=0 / nr-inter=0 / no-constrained-intra / no-strong-intra-smoothing / max-merge=5 / limit-refs=3 / no-limit-modes / me=3 / subme=7 / merange=57 / temporal-mvp / no-frame-dup / no-hme / weightp / weightb / no-analyze-src-pics / deblock=-3:-3 / no-sao / no-sao-non-deblock / rd=6 / selective-sao=0 / no-early-skip / rskip / no-fast-intra / no-tskip-fast / no-cu-lossless / b-intra / no-splitrd-skip / rdpenalty=0 / psy-rd=2.00 / psy-rdoq=1.00 / no-rd-refine / no-lossless / cbqpoffs=0 / crqpoffs=0 / rc=crf / crf=19.2 / qcomp=0.60 / qpstep=4 / stats-write=0 / stats-read=0 / vbv-maxrate=50000 / vbv-bufsize=50000 / vbv-init=0.9 / crf-max=0.0 / crf-min=0.0 / ipratio=1.40 / pbratio=1.30 / aq-mode=1 / aq-strength=1.00 / no-cutree / zone-count=1 / zones: / start-frame=186086 / end-frame=190812 / qp=36 / no-strict-cbr / qg-size=32 / no-rc-grain / qpmax=69 / qpmin=0 / no-const-vbv / sar=1 / overscan=0 / videoformat=5 / range=0 / colorprim=2 / transfer=2 / colormatrix=2 / chromaloc=0 / display-window=0 / cll=0,0 / min-luma=0 / max-luma=1023 / log2-max-poc-lsb=8 / vui-timing-info / vui-hrd-info / slices=1 / no-opt-qp-pps / no-opt-ref-list-length-pps / no-multi-pass-opt-rps / scenecut-bias=0.00 / hist-threshold=0.01 / no-opt-cu-delta-qp / no-aq-motion / no-hdr10 / no-hdr10-opt / no-dhdr10-opt / no-idr-recovery-sei / analysis-reuse-level=0 / analysis-save-reuse-level=0 / analysis-load-reuse-level=0 / scale-factor=0 / refine-intra=0 / refine-inter=0 / refine-mv=1 / refine-ctu-distortion=0 / no-limit-sao / ctu-info=0 / no-lowpass-dct / refine-analysis-type=0 / copy-pic=1 / max-ausize-factor=1.0 / no-dynamic-refine / no-single-sei / no-hevc-aq / no-svt / no-field / qp-adaptation-range=1.00 / no-scenecut-aware-qpconformance-window-offsets / right=0 / bottom=0 / decoder-max-rate=0
Language                                 : English
Default                                  : Yes
Forced                                   : No

Audio #1
ID                                       : 2
Format                                   :
Format/Info                              : Digital Theater Systems
Codec ID                                 : A_DTS
Duration                                 : 2 h 12 min
Bit rate mode                            : Constant
Bit rate                                 : 1 509 kb/s
Channel(s)                               : 5 channels
Channel layout                           : C L R Ls Rs
Sampling rate                            : 48.0 kHz
Frame rate                               : 93.750 FPS (512 SPF)
Bit depth                                : 24 bits
Compression mode                         : Lossy
Stream size                              : 1.40 GiB (11%)
Title                                    : / 5.0 Ch / 1509 kbps / MVO / Новий Канал
Language                                 : Ukrainian
Default                                  : Yes
Forced                                   : Yes

Audio #2
ID                                       : 3
Format                                   : AC-3
Format/Info                              : Audio Coding 3
Commercial name                          : Dolby Digital
Codec ID                                 : A_AC3
Duration                                 : 2 h 12 min
Bit rate mode                            : Constant
Bit rate                                 : 192 kb/s
Channel(s)                               : 2 channels
Channel layout                           : L R
Sampling rate                            : 48.0 kHz
Frame rate                               : 31.250 FPS (1536 SPF)
Compression mode                         : Lossy
Stream size                              : 182 MiB (1%)
Title                                    : AC-3 / 2.0 Ch / 192 kbps / MVO / Інтер, AMC
Language                                 : Ukrainian
Service kind                             : Complete Main
Default                                  : No
Forced                                   : No

Audio #3
ID                                       : 4
Format                                   :
Format/Info                              : Digital Theater Systems
Codec ID                                 : A_DTS
Duration                                 : 2 h 12 min
Bit rate mode                            : Constant
Bit rate                                 : 1 509 kb/s
Channel(s)                               : 5 channels
Channel layout                           : C L R Ls Rs
Sampling rate                            : 48.0 kHz
Frame rate                               : 93.750 FPS (512 SPF)
Bit depth                                : 24 bits
Compression mode                         : Lossy
Stream size                              : 1.40 GiB (11%)
Title                                    : / 5.0 Ch / 1509 kbps / Original
Language                                 : English
Default                                  : No
Forced                                   : No

Audio #4
ID                                       : 5
Format                                   : AC-3
Format/Info                              : Audio Coding 3
Commercial name                          : Dolby Digital
Codec ID                                 : A_AC3
Duration                                 : 2 h 12 min
Bit rate mode                            : Constant
Bit rate                                 : 256 kb/s
Channel(s)                               : 2 channels
Channel layout                           : L R
Sampling rate                            : 48.0 kHz
Frame rate                               : 31.250 FPS (1536 SPF)
Compression mode                         : Lossy
Stream size                              : 243 MiB (2%)
Title                                    : AC-3 / 2.0 Ch / 256 kbps / Original / Commentary
Language                                 : English
Service kind                             : Complete Main
Default                                  : No
Forced                                   : No

Text #1
ID                                       : 6
Format                                   : UTF-8
Codec ID                                 : S_TEXT/UTF8
Codec ID/Info                            : UTF-8 Plain Text
Duration                                 : 2 h 5 min
Bit rate                                 : 1 b/s
Count of elements                        : 25
Stream size                              : 1 010 Bytes (0%)
Title                                    : Forced
Language                                 : Ukrainian
Default                                  : Yes
Forced                                   : Yes

Text #2
ID                                       : 7
Format                                   : UTF-8
Codec ID                                 : S_TEXT/UTF8
Codec ID/Info                            : UTF-8 Plain Text
Duration                                 : 2 h 11 min
Bit rate                                 : 75 b/s
Count of elements                        : 1563
Stream size                              : 72.5 KiB (0%)
Title                                    : Full from Netflix
Language                                 : Ukrainian
Default                                  : No
Forced                                   : No

Text #3
ID                                       : 8
Format                                   : UTF-8
Codec ID                                 : S_TEXT/UTF8
Codec ID/Info                            : UTF-8 Plain Text
Duration                                 : 2 h 8 min
Bit rate                                 : 54 b/s
Count of elements                        : 1666
Stream size                              : 51.0 KiB (0%)
Title                                    : Full
Language                                 : English
Default                                  : No
Forced                                   : No

Text #4
ID                                       : 9
Format                                   : UTF-8
Codec ID                                 : S_TEXT/UTF8
Codec ID/Info                            : UTF-8 Plain Text
Duration                                 : 2 h 8 min
Bit rate                                 : 54 b/s
Count of elements                        : 1666
Stream size                              : 51.1 KiB (0%)
Title                                    : SDH
Language                                 : English
Default                                  : No
Forced                                   : No

Menu
00:00:00.000                             : en:Chapter 1
00:07:13.723                             : en:Chapter 2
00:15:12.994                             : en:Chapter 3
00:19:42.055                             : en:Chapter 4
00:31:57.165                             : en:Chapter 5
00:41:18.225                             : en:Chapter 6
00:48:06.884                             : en:Chapter 7
01:00:17.238                             : en:Chapter 8
01:05:12.408                             : en:Chapter 9
01:10:14.542                             : en:Chapter 10
01:18:55.272                             : en:Chapter 11
01:27:50.807                             : en:Chapter 12
01:33:34.774                             : en:Chapter 13
01:42:57.880                             : en:Chapter 14
01:51:48.076                             : en:Chapter 15
01:59:42.133                             : en:Chapter 16
Лог кодування
Код:
x265 [info]: frame I: 799, Avg QP:16.65 kb/s: 24125.27
x265 [info]: frame P: 32850, Avg QP:17.89 kb/s: 19464.47
x265 [info]: frame B: 157174, Avg QP:19.76 kb/s: 8913.12
x265 [info]: Weighted P-Frames: Y:5.4% UV:4.2%
x265 [info]: Weighted B-Frames: Y:3.5% UV:2.5%
x265 [info]: consecutive B-frames: 1.0% 1.4% 3.1% 36.9% 8.1% 13.8% 4.9% 29.2% 0.8% 0.2% 0.1% 0.3% 0.0% 0.0%
x265 [info]: encoded 190823 frames in 275542.15s (0.69 fps), 10793.22 kb/s, Avg QP:19.43
Світлини




Джерело: & &
Особиста оцінка: 0 - не дивився

Подяка пану leicheman за надані укр. субтитри з Нетфлікс.


Срібний реліз (на рейтинг впливає 50% завантаженого)
 Трекер:    Зареєстрований   

Завантажити / скачати фільм українською



відео для новачків



 Зареєстрований:   2021-01-14 11:59
 Розмір:   13.22 GB 
 Оцінка фільму:   10/10 (Голосів: 3)
   
Інші релізи
Ваш часовий пояс: GMT + 2 Години

Нова тема   Відповісти