В облозі / Under siege (1992) AVC 2xUkr/Eng

Нові коментарі

Нова тема   Відповісти
Автор Повідомлення
Arsenfpu 
Відео Гуртом - фільмокрай
Відео Гуртом - фільмокрай


З нами з: 30.04.09
Востаннє: 21.01.21
Повідомлень: 7702

2021-01-13 23:30  
В облозі / Under siege (1992) AVC 2xUkr/Eng

В облозі / Under siege (1992) AVC 2xUkr/Eng


Жанр: екшн, трилер
Країна: Франція, США



Кінокомпанія: Warner Bros., New Regency Productions, Canal+
Режисер: Ендрю Девіс
Актори: Стівен Сігал, Томмі Лі Джонс, Гері Б'юзі, Еріка Еленяк, Деміен Чапа, Колм Міні

Сюжет:
Терористи – колишня еліта командос – під видом супроводжуючої рок-групи, яка повинна виступити перед військовими моряками, пробираються на корабель з ядерною зброєю. Розправившись з основною частиною командного складу вони намагаються шантажувати уряд США. Все для терористів човна складалося сприятливо до тих пір, поки вони не вирішили ізолювати повара – колишнього морського піхотинця. Кок не міг стерпіти такого знущання: він практично сам хоронить плани нахаб один за другим.


Тривалість: 01:42:31
Якість:
Відео:
кодек:
розмір кадру: 1 024 х 576
бітрейт: 2 499 кб/с

Аудіо # 1:
мова: українська
переклад: двоголосий закадровий (з 5.1)
кодек: 2.0
бітрейт: 192 кб/с

Аудіо # 2:
мова: українська
переклад: багатоголосий закадровий (з 5.1)
кодек: 2.0
бітрейт: 192 кб/с

Аудіо # 3:
мова: англійська
переклад: оригінал
кодек: 2.0
бітрейт: 192 кб/с
Скріншоти














Про файл
General
Unique ID : 175739996553936708637324193065705362938 (0x84364ACC3DC056DEB9B66DB82E5755FA)
Complete name : D:\Under siege (1992) [2xUkr,Eng] AVC [Hurtom].
Format :
Format version : Version 4
File size : 2.20 GiB
Duration : 1 h 42 min
Overall bit rate : 3 077 kb/s
Movie name : В облозі / Under siege (1992)
Encoded date : UTC 2021-01-13 18:55:25
Writing application : v21.0.0 ('Tardigrades Will Inherit The Earth') 32-bit
Writing library : libebml v1.3.5 + v1.4.8
Cover : Yes
Attachments : cover.jpg

Video
ID : 1
Format : AVC
Format/Info : Advanced Video Codec
Format profile : [email protected]
Format settings : CABAC / 8 Ref Frames
Format settings, CABAC : Yes
Format settings, Reference : 8 frames
Codec ID : V_MPEG4/ISO/AVC
Duration : 1 h 42 min
Bit rate : 2 499 kb/s
Width : 1 024 pixels
Height : 576 pixels
Display aspect ratio : 16:9
Frame rate mode : Constant
Frame rate : 23.976 (24000/1001) FPS
Color space : YUV
Chroma subsampling : 4:2:0
Bit depth : 8 bits
Scan type : Progressive
Bits/(Pixel*Frame) : 0.177
Stream size : 1.79 GiB (81%)
Writing library : core 157 r2969 d4099dd
Encoding settings : cabac=1 / ref=8 / deblock=1:-1:-1 / analyse=0x3:0x133 / me=umh / subme=10 / psy=1 / psy_rd=1.00:0.15 / mixed_ref=1 / me_range=32 / chroma_me=1 / trellis=2 / 8x8dct=1 / cqm=0 / deadzone=21,11 / fast_pskip=0 / chroma_qp_offset=-3 / threads=18 / lookahead_threads=1 / sliced_threads=0 / nr=0 / decimate=1 / interlaced=0 / bluray_compat=0 / constrained_intra=0 / bframes=3 / b_pyramid=2 / b_adapt=2 / b_bias=0 / direct=3 / weightb=1 / open_gop=0 / weightp=2 / keyint=240 / keyint_min=23 / scenecut=40 / intra_refresh=0 / rc_lookahead=60 / rc=2pass / mbtree=1 / bitrate=2499 / ratetol=1.0 / qcomp=0.60 / qpmin=0 / qpmax=69 / qpstep=4 / cplxblur=20.0 / qblur=0.5 / vbv_maxrate=31250 / vbv_bufsize=31250 / nal_hrd=none / filler=0 / ip_ratio=1.40 / aq=1:1.00
Default : Yes
Forced : No

Audio #1
ID : 2
Format : AC-3
Format/Info : Audio Coding 3
Commercial name : Dolby Digital
Codec ID : A_AC3
Duration : 1 h 42 min
Bit rate mode : Constant
Bit rate : 192 kb/s
Channel(s) : 2 channels
Channel layout : L R
Sampling rate : 48.0 kHz
Frame rate : 31.250 FPS (1536 SPF)
Compression mode : Lossy
Stream size : 141 MiB (6%)
Title : 1+1
Language : Ukrainian
Service kind : Complete Main
Default : Yes
Forced : Yes

Audio #2
ID : 3
Format : AC-3
Format/Info : Audio Coding 3
Commercial name : Dolby Digital
Codec ID : A_AC3
Duration : 1 h 42 min
Bit rate mode : Constant
Bit rate : 192 kb/s
Channel(s) : 2 channels
Channel layout : L R
Sampling rate : 48.0 kHz
Frame rate : 31.250 FPS (1536 SPF)
Compression mode : Lossy
Stream size : 141 MiB (6%)
Title : ICTV
Language : Ukrainian
Service kind : Complete Main
Default : No
Forced : No

Audio #3
ID : 4
Format : AC-3
Format/Info : Audio Coding 3
Commercial name : Dolby Digital
Codec ID : A_AC3
Duration : 1 h 42 min
Bit rate mode : Constant
Bit rate : 192 kb/s
Channel(s) : 2 channels
Channel layout : L R
Sampling rate : 48.0 kHz
Frame rate : 31.250 FPS (1536 SPF)
Compression mode : Lossy
Stream size : 141 MiB (6%)
Service kind : Complete Main
Default : No
Forced : No
Джерело:
За українські доріжки дякую п. _oles, Disturbed, Merdiff, Romario_O, robotron005
За постер дякую пану Yuraflash
Особиста оцінка: фільм класний


Срібний реліз (на рейтинг впливає 50% завантаженого)
 Трекер:    Зареєстрований   

Завантажити / скачати фільм українською



відео для новачків



 Зареєстрований:   2021-01-13 23:30
 Розмір:   2.2 GB 
 Оцінка фільму:   8/10 (Голосів: 9)
   
BratBober 
Новенький


З нами з: 12.01.21
Востаннє: 19.01.21
Повідомлень: 2

2021-01-13 23:47  
Чи буде хтось викладати Remux? Хотілося б 1 та 2 частину.
palmotron 
Свій


З нами з: 27.11.08
Востаннє: 20.01.21
Повідомлень: 101

2021-01-15 23:11  
Старий добрий бойовик! Класне кіно!
Ваш часовий пояс: GMT + 2 Години

Нова тема   Відповісти