Джейсон Борн. Повна колекція / Jason Bourne. Complete Collection (2002-2004-2007-2012-2016) 3xUkr/Eng | Sub Ukr/Eng

Нові коментарі

Нова тема   Відповісти
Автор Повідомлення
21jumpstreet 
VIP


З нами з: 03.07.12
Востаннє: 19.01.21
Повідомлень: 1623

2021-01-13 17:58  
Джейсон Борн. Повна колекція / Jason Bourne. Complete Collection (2002-2004-2007-2012-2016) 3xUkr/Eng | Sub Ukr/Eng


Джейсон Борн. Повна колекція / Jason Bourne. Complete Collection (2002-2004-2007-2012-2016) 3xUkr/Eng | Sub Ukr/Eng
Ідентифікація Борна / The Bourne Identity (2002) 2xUkr/Eng | Sub Ukr/Eng

Ідентифікація Борна / The Bourne Identity (2002) 2xUkr/Eng | Sub Ukr/Eng | Sub Ukr/Eng


Джейсон Борн. Повна колекція / Jason Bourne. Complete Collection (2002-2004-2007-2012-2016) 3xUkr/Eng | Sub Ukr/Eng

Жанр: бойовик
Країна: США, Чехія



Кінокомпанія: Universal Pictures
Режисер: Даґ Лаймен
Актори: Мет Деймон, Франка Потенте, Кріс Купер, Клайв Овен, Браян Кокс, Адевале Акіннуоє-Аґбадже, Ґебріел Манн, Волтон Ґоґґінс, Джош Гемілтон, Джулія Стайлз

Сюжет:
Команда італійського риболовецького судна знаходить у водах Середземного моря тіло чоловіка. У нього два кульові поранення в спину та імплантований в стегно мікрофільм з номером рахунку у швейцарському банку. Коли незнайомець приходить до тями, виявляється, що він не пам'ятає хто він, і що з ним трапилося, проте він може говорити на декількох мовах і володіє іншими незвичайними здібностями. Отримавши в Цюріху гроші із вказаного банківського рахунку, він дізнається своє ім'я - Джейсон Борн. Але справжнє це його ім'я чи ні? Намагаючись відновити своє минуле, він знаходить свою адресу в Парижі, але разом з цим розуміє, що на нього полюють вбивці - агенти спецслужб. Борн вмовляє німецьку студентку Мері відвезти його в Париж, щоб з'ясувати все про своє минуле і зрозуміти, хто хоче його вбити.


Тривалість: 01:58:37 (Limited Edition, на 20 секунд довша за театральну версію)
Якість:
Відео:
кодек:
розмір кадру: 720x304
бітрейт: 1855 кб/с

Аудіо # 1:
мова: українська
переклад: багатоголосий закадровий
кодек: 2.0
бітрейт: 192 кб/с
Інформація про озвучення:
Ролі озвучили: Юрій Гребельник, Кирило Татарченко, Наталія Задніпровська та Анна Соболєва
Аудіо # 2:
мова: українська
переклад: багатоголосий закадровий
кодек: 2.0
бітрейт: 192 кб/с
Інформація про озвучення:
Ролі озвучили: Юрій Ребрик, Олег Стальчук, Володимир Терещук і Олена Яблучна
Аудіо # 3:
мова: англійська
переклад: оригінал
кодек: 5.1
бітрейт: 384 кб/с

Субтитри #1:
мова: українська
тип: програмні (м'які)
формат: *.srt
примітка: є кілька моментів кацапською

Субтитри #2: (full)
мова: англійська
тип: програмні (м'які)
формат: *.srt
Скріншоти



Info
C:\Users\Admin\Downloads\The Bourne. Complete Collection (2002-2004-2007-2012-2016) [Hurtom]\The Bourne Identity (2002) [2xUkr,Eng] [Hurtom].avi
General
Complete name : C:\Users\Admin\Downloads\The Bourne. Complete Collection (2002-2004-2007-2012-2016) [Hurtom]\The Bourne Identity (2002) [2xUkr,Eng] [Hurtom].avi
Format : AVI
Format/Info : Audio Video Interleave
Format profile : OpenDML
File size : 2.18 GiB
Duration : 1 h 58 min
Overall bit rate : 2 636 kb/s
Writing application : VirtualDubMod 1.5.10.2 (build 2540/release)
Writing library : VirtualDubMod build 2540/release
Video #0
ID : 0
Format : MPEG-4 Visual
Format profile : Advanced [email protected]
Format settings, BVOP : 2
Format settings, QPel : No
Format settings, GMC : No warppoints
Format settings, Matrix : Custom
Codec ID :
Codec ID/Hint :
Duration : 1 h 58 min
Bit rate : 1 844 kb/s
Width : 720 pixels
Height : 304 pixels
Display aspect ratio : 2.35:1
Frame rate : 23.976 (23976/1000) FPS
Color space : YUV
Chroma subsampling : 4:2:0
Bit depth : 8 bits
Scan type : Progressive
Compression mode : Lossy
Bits/(Pixel*Frame) : 0.351
Stream size : 1.53 GiB (70%)
Writing library : 73
Audio #1
ID : 1
Format : AC-3
Format/Info : Audio Coding 3
Mode extension : CM (complete main)
Format settings, Endianness : Big
Codec ID : 2000
Duration : 1 h 58 min
Bit rate mode : Constant
Bit rate : 192 kb/s
Channel(s) : 2 channels
Channel positions : Front: L R
Sampling rate : 48.0 kHz
Frame rate : 31.250 FPS (1536 spf)
Compression mode : Lossy
Stream size : 163 MiB (7%)
Alignment : Split accross interleaves
Interleave, duration : 42 ms (1.00 video frame)
Interleave, preload duration : 500 ms
Audio #2
ID : 2
Format : AC-3
Format/Info : Audio Coding 3
Mode extension : CM (complete main)
Format settings, Endianness : Big
Codec ID : 2000
Duration : 1 h 58 min
Bit rate mode : Constant
Bit rate : 192 kb/s
Channel(s) : 2 channels
Channel positions : Front: L R
Sampling rate : 48.0 kHz
Frame rate : 31.250 FPS (1536 spf)
Compression mode : Lossy
Stream size : 163 MiB (7%)
Alignment : Split accross interleaves
Interleave, duration : 42 ms (1.00 video frame)
Interleave, preload duration : 500 ms
Audio #3
ID : 3
Format : AC-3
Format/Info : Audio Coding 3
Mode extension : CM (complete main)
Format settings, Endianness : Big
Codec ID : 2000
Duration : 1 h 58 min
Bit rate mode : Constant
Bit rate : 384 kb/s
Channel(s) : 6 channels
Channel positions : Front: L C R, Side: L R, LFE
Sampling rate : 48.0 kHz
Frame rate : 31.250 FPS (1536 spf)
Compression mode : Lossy
Stream size : 326 MiB (15%)
Alignment : Split accross interleaves
Interleave, duration : 42 ms (1.00 video frame)
Interleave, preload duration : 500 ms
Найщиріші подяки:
Запис з ТБ - xslim
Зведення - Breniak, kryk-v.ya.
Cинхронізація під версію Limited Edition - igor911
Український постер - FireStar
Українські субтитри - leicheman
Оригінальні субтитри - SbR він же Skazhutin
Відеоріп AVC - Maters
Фільмографії акторів та інформація про озвучення - Віктор
Перевага Борна / The Bourne Supremacy (2004) 2xUkr/Eng | Sub Ukr/Eng

Перевага Борна / The Bourne Supremacy (2004) 2xUkr/Eng | Sub Ukr/Eng


Джейсон Борн. Повна колекція / Jason Bourne. Complete Collection (2002-2004-2007-2012-2016) 3xUkr/Eng | Sub Ukr/Eng


Жанр: бойовик
Країна: США



Кінокомпанія: Universal Pictures
Режисер: Пол Грінграсс
Актори: Мет Деймон / Matt Damon, Франка Потенте / Franka Potente, Брайан Кокс / Brian Cox, Джулія Стайлз / Julia Stiles, Карл Урбан / Karl Urban, Джоан Аллен / Joan Allen, Гебріел Манн / Gabriel Mann та інші

Сюжет:
Через три роки після подій “Ідентифікації Борна” ЦРУ знову починає переслідувати колишнього агента Джейсона Борна, що втратив пам'ять. Коли внаслідок цього гине подруга Борна, він змушений знову вийти на стежку війни...

Доля заносить Борна в Росію, де на нього чекає безліч характерних для цієї країни, але незвичних західній людині, сюрпризів...


Тривалість: 01:48:31
Якість:
Відео:
кодек:
розмір кадру: 720x304
бітрейт: 2099 кб/с

Аудіо # 1:
мова: українська
переклад: багатоголосий закадровий
кодек: 2.0
бітрейт: 192 кб/с
Інформація про озвучення:
Ролі озвучили: Юрій Гребельник, Кирило Татарченко, Анна Соболєва та Наталія Задніпровська
Аудіо # 2:
мова: українська
переклад: багатоголосий закадровий
кодек: 2.0
бітрейт: 192 кб/с
Інформація про озвучення
Ролі озвучили: Володимир Терещук, Роман Семисал, Наталя Задніпровська та Олена Бліннікова
Аудіо # 3:
мова: англійська
переклад: оригінал
кодек: 5.1
бітрейт: 384 кб/с

Субтитри #1:
мова: українська
тип: програмні (м'які)
формат: *.srt

Субтитри #2: (full)
мова: англійська
тип: програмні (м'які)
формат: *.srt
примітка: форсовані субтитри на кацапські діалоги
Скріншоти



Info
C:\Users\Admin\Downloads\The Bourne. Complete Collection (2002-2004-2007-2012-2016) [Hurtom]\The Bourne Supremacy (2004) [2xUkr,Eng] [Hurtom].avi
General
Complete name : C:\Users\Admin\Downloads\The Bourne. Complete Collection (2002-2004-2007-2012-2016) [Hurtom]\The Bourne Supremacy (2004) [2xUkr,Eng] [Hurtom].avi
Format : AVI
Format/Info : Audio Video Interleave
Format profile : OpenDML
File size : 2.18 GiB
Duration : 1 h 48 min
Overall bit rate : 2 881 kb/s
Writing application : VirtualDubMod 1.5.10.2 (build 2540/release)
Writing library : VirtualDubMod build 2540/release
Video #0
ID : 0
Format : MPEG-4 Visual
Format profile : Advanced [email protected]
Format settings, BVOP : 2
Format settings, QPel : No
Format settings, GMC : No warppoints
Format settings, Matrix : Custom
Codec ID :
Codec ID/Hint :
Duration : 1 h 48 min
Bit rate : 2 089 kb/s
Width : 720 pixels
Height : 304 pixels
Display aspect ratio : 2.35:1
Frame rate : 23.976 (23976/1000) FPS
Color space : YUV
Chroma subsampling : 4:2:0
Bit depth : 8 bits
Scan type : Progressive
Compression mode : Lossy
Bits/(Pixel*Frame) : 0.398
Stream size : 1.58 GiB (73%)
Writing library : 73
Audio #1
ID : 1
Format : AC-3
Format/Info : Audio Coding 3
Mode extension : CM (complete main)
Format settings, Endianness : Big
Codec ID : 2000
Duration : 1 h 48 min
Bit rate mode : Constant
Bit rate : 192 kb/s
Channel(s) : 2 channels
Channel positions : Front: L R
Sampling rate : 48.0 kHz
Frame rate : 31.250 FPS (1536 spf)
Compression mode : Lossy
Stream size : 149 MiB (7%)
Alignment : Split accross interleaves
Interleave, duration : 42 ms (1.00 video frame)
Interleave, preload duration : 500 ms
Audio #2
ID : 2
Format : AC-3
Format/Info : Audio Coding 3
Mode extension : CM (complete main)
Format settings, Endianness : Big
Codec ID : 2000
Duration : 1 h 48 min
Bit rate mode : Constant
Bit rate : 192 kb/s
Channel(s) : 2 channels
Channel positions : Front: L R
Sampling rate : 48.0 kHz
Frame rate : 31.250 FPS (1536 spf)
Compression mode : Lossy
Stream size : 149 MiB (7%)
Alignment : Split accross interleaves
Interleave, duration : 42 ms (1.00 video frame)
Interleave, preload duration : 500 ms
Audio #3
ID : 3
Format : AC-3
Format/Info : Audio Coding 3
Mode extension : CM (complete main)
Format settings, Endianness : Big
Codec ID : 2000
Duration : 1 h 48 min
Bit rate mode : Constant
Bit rate : 384 kb/s
Channel(s) : 6 channels
Channel positions : Front: L C R, Side: L R, LFE
Sampling rate : 48.0 kHz
Frame rate : 31.250 FPS (1536 spf)
Compression mode : Lossy
Stream size : 298 MiB (13%)
Alignment : Split accross interleaves
Interleave, duration : 42 ms (1.00 video frame)
Interleave, preload duration : 500 ms
Над фільмом працювали:
Запис з ТБ - xslim
Зведення - Breniak, kryk-v.ya.
Український постер - FireStar
Українські субтитри - leicheman
Форсовані субтитри - igor911
Оригінальний звук та субтитри - DON, Skazhutin
Відеоріп AVC - Maters
Фільмографії акторів та інформація про озвучення - Віктор
Ультиматум Борна / The Bourne Ultimatum (2007) 3xUkr/Eng | Sub Ukr/Eng

Ультиматум Борна / The Bourne Ultimatum (2007) 3xUkr/Eng | Sub Ukr/Eng


Джейсон Борн. Повна колекція / Jason Bourne. Complete Collection (2002-2004-2007-2012-2016) 3xUkr/Eng | Sub Ukr/Eng


Жанр: бойовик
Країна: США



Кінокомпанія: Universal Pictures
Режисер: Пол Грінграсс
Актори: Мет Деймон / Matt Damon, Джулія Стайлз / Julia Stiles, Девід Стретейрн / David Strathairn, Скотт Глен / Scott Glenn, Педді Консідін / Paddy Considine, Едгар Рамірез / Edgar Ramirez, Джоан Аллен / Joan Allen та інші

Сюжет:
Він хотів одного - зникнути. Натомість за Борном тепер полюють люди, які зробили його таким, який він є. Він втратив пам'ять і людину, яку він любив. Але його не вдається стримати навіть новому поколінню професійних вбивць. У нього тільки одна мета: повернутися до початку і дізнатися ким він був, Джейсон Борн.
Він ганяє від Москви до Парижа, через Мадрид і Лондон в Танжер і Нью-Йорк, намагаючись розкрити останні загадки свого минулого, тоді як урядові агенти та Інтерпол намагаються перешкодити йому відновити всю картину до кінця.


Тривалість: 01:55:19
Якість:
Відео:
кодек:
розмір кадру: 704x400
бітрейт: 1941 кб/с

Аудіо # 1:
мова: українська
переклад: професійний дубльований
кодек: 5.1
бітрейт: 448 кб/с
Інформація про дубляж:
Ролі дублювали:Остап Ступка, Дмитро Завадський, Ірина Дорошенко, Костянтин Лінартович, Анатолій Барчук та інші.
Аудіо # 2:
мова: українська
переклад: багатоголосий закадровий
кодек: 2.0
бітрейт: 192 кб/с
Інформація про озвучення:
Ролі озвучили: Євген Пашин, Юрій Гребельник, Кирило Татарченко та Наталія Задніпровська
Аудіо # 3:
мова: українська
переклад: багатоголосий закадровий
кодек: 2.0
бітрейт: 192 кб/с
Інформація про озвучення:
Ролі озвучили: Дмитро Терещук, Дмитро Гаврилов, Наталя Поліщук і Олена Бліннікова
Аудіо # 4:
мова: англійська
переклад: оригінал
кодек: 5.1
бітрейт: 384 кб/с

Субтитри #1:
мова: українська
тип: програмні (м'які)
формат: *.srt

Субтитри #2: (full)
мова: англійська
тип: програмні (м'які)
формат: *.srt
Скріншоти



Info
C:\Users\Admin\Downloads\The Bourne. Complete Collection (2002-2004-2007-2012-2016) [Hurtom]\The Bourne Ultimatum (2007) [3xUkr,Eng] [Hurtom].avi
General
Complete name : C:\Users\Admin\Downloads\The Bourne. Complete Collection (2002-2004-2007-2012-2016) [Hurtom]\The Bourne Ultimatum (2007) [3xUkr,Eng] [Hurtom].avi
Format : AVI
Format/Info : Audio Video Interleave
Format profile : OpenDML
File size : 2.56 GiB
Duration : 1 h 55 min
Overall bit rate : 3 174 kb/s
Writing application : VirtualDubMod 1.5.10.2 (build 2540/release)
Writing library : VirtualDubMod build 2540/release
Video #0
ID : 0
Format : MPEG-4 Visual
Format profile : Advanced [email protected]
Format settings, BVOP : 2
Format settings, QPel : No
Format settings, GMC : No warppoints
Format settings, Matrix : Custom
Codec ID :
Codec ID/Hint :
Duration : 1 h 55 min
Bit rate : 1 931 kb/s
Width : 720 pixels
Height : 304 pixels
Display aspect ratio : 2.35:1
Frame rate : 23.976 (23976/1000) FPS
Color space : YUV
Chroma subsampling : 4:2:0
Bit depth : 8 bits
Scan type : Progressive
Compression mode : Lossy
Bits/(Pixel*Frame) : 0.368
Stream size : 1.56 GiB (61%)
Writing library : 73
Audio #1
ID : 1
Format : AC-3
Format/Info : Audio Coding 3
Mode extension : CM (complete main)
Format settings, Endianness : Big
Codec ID : 2000
Duration : 1 h 55 min
Bit rate mode : Constant
Bit rate : 448 kb/s
Channel(s) : 6 channels
Channel positions : Front: L C R, Side: L R, LFE
Sampling rate : 48.0 kHz
Frame rate : 31.250 FPS (1536 spf)
Compression mode : Lossy
Stream size : 369 MiB (14%)
Alignment : Split accross interleaves
Interleave, duration : 42 ms (1.00 video frame)
Interleave, preload duration : 500 ms
Audio #2
ID : 2
Format : AC-3
Format/Info : Audio Coding 3
Mode extension : CM (complete main)
Format settings, Endianness : Big
Codec ID : 2000
Duration : 1 h 55 min
Bit rate mode : Constant
Bit rate : 192 kb/s
Channel(s) : 2 channels
Channel positions : Front: L R
Sampling rate : 48.0 kHz
Frame rate : 31.250 FPS (1536 spf)
Compression mode : Lossy
Stream size : 158 MiB (6%)
Alignment : Split accross interleaves
Interleave, duration : 42 ms (1.00 video frame)
Interleave, preload duration : 500 ms
Audio #3
ID : 3
Format : AC-3
Format/Info : Audio Coding 3
Mode extension : CM (complete main)
Format settings, Endianness : Big
Codec ID : 2000
Duration : 1 h 55 min
Bit rate mode : Constant
Bit rate : 192 kb/s
Channel(s) : 2 channels
Channel positions : Front: L R
Sampling rate : 48.0 kHz
Frame rate : 31.250 FPS (1536 spf)
Compression mode : Lossy
Stream size : 158 MiB (6%)
Alignment : Split accross interleaves
Interleave, duration : 42 ms (1.00 video frame)
Interleave, preload duration : 500 ms
Audio #4
ID : 4
Format : AC-3
Format/Info : Audio Coding 3
Mode extension : CM (complete main)
Format settings, Endianness : Big
Codec ID : 2000
Duration : 1 h 55 min
Bit rate mode : Constant
Bit rate : 384 kb/s
Channel(s) : 6 channels
Channel positions : Front: L C R, Side: L R, LFE
Sampling rate : 48.0 kHz
Frame rate : 31.250 FPS (1536 spf)
Compression mode : Lossy
Stream size : 316 MiB (12%)
Alignment : Split accross interleaves
Interleave, duration : 42 ms (1.00 video frame)
Interleave, preload duration : 500 ms
Над фільмом працювали:
Запис з ТБ - xslim
Зведення - Breniak, kryk-v.ya.
Українські субтитри - leicheman
Оригінальний звук та субтитри - SbR він же Skazhutin
Відеоріп AVC - Maters
Фільмографії акторів та інформація про озвучення - Віктор
Еволюція Борна / Спадок Борна / The Bourne Legacy (2012) 3xUkr/Eng | Sub 2xUkr/Eng

Еволюція Борна / Спадок Борна / The Bourne Legacy (2012) 3xUkr/Eng | Sub 2xUkr/Eng


Джейсон Борн. Повна колекція / Jason Bourne. Complete Collection (2002-2004-2007-2012-2016) 3xUkr/Eng | Sub Ukr/Eng


Жанр: бойовик
Країна: США



Кінокомпанія: Universal Pictures
Режисер: Тоні Гілрой
Актори: Джеремі Реннер / Jeremy Renner, Рейчел Вайс / Rachel Weisz, Скотт Гленн / Scott Glenn, Стейсі Кіч / Stacy Keach, Едвард Нортон / Edward Norton, Оскар Айзек / Oscar Isaac, Желько Іванек / Zeljko Ivanek, Альберт Фінні / Albert Finney, Донна Мерфі / Donna Murphy та інші

Сюжет:
У грі завжди кілька фігур. Одна з них - Джейсон Борн, інша - досконалий агент Аарон Крос. Їх можливості безмежні. Але навіть у ідеальної зброї бувають збої...


Тривалість: 02:15:02
Якість:
Відео:
кодек:
розмір кадру: 704x400
бітрейт: 1853 кб/с

Аудіо # 1:
мова: українська
переклад: багатоголосий закадровий
кодек: 2.0
бітрейт: 192 кб/с
Інформація про озвучення
Ролі озвучили: Кирило Татарченко, Сергій Ладєсов, Олександр Шевчук та Наталія Задніпровська
Аудіо # 2:
мова: українська
переклад: багатоголосий закадровий
кодек: 2.0
бітрейт: 192 кб/с
Інформація про озвучення:
Ролі озвучили: Олесь Гімбаржевський, Владислав Пупков, Анатолій Зіновенко, Лідія Муращенко і Андрій Вільколек.
Аудіо # 3:
мова: українська
переклад: багатоголосий закадровий
кодек: 2.0
бітрейт: 192 кб/с
Інформація про озвучення:
Ролі озвучили: Дмитро Терещук, Євген Пашин, Юрій Гребельник та Наталія Поліщук
Аудіо # 4:
мова: англійська
переклад: оригінал
кодек: 5.1
бітрейт: 448 кб/с

Субтитри #1:
мова: українська
тип: програмні (м'які)
формат: *.srt

Субтитри #2: (BOOGud)
мова: українська
тип: програмні (м'які)
формат: *.srt

Субтитри #3: (full)
мова: англійська
тип: програмні (м'які)
формат: *.srt
Скріншоти



Info
C:\Users\Admin\Downloads\The Bourne. Complete Collection (2002-2004-2007-2012-2016) [Hurtom]\The Bourne Legacy (2012) [3xUkr,Eng] [Hurtom].avi
General
Complete name : C:\Users\Admin\Downloads\The Bourne. Complete Collection (2002-2004-2007-2012-2016) [Hurtom]\The Bourne Legacy (2012) [3xUkr,Eng] [Hurtom].avi
Format : AVI
Format/Info : Audio Video Interleave
Format profile : OpenDML
File size : 2.74 GiB
Duration : 2 h 15 min
Overall bit rate : 2 901 kb/s
Movie name : The.Bourne.Legacy.2012.Tony.Gilroy
Writing application : VirtualDubMod 1.5.10.2 (build 2540/release)
Writing library : VirtualDubMod build 2540/release
Original source form/Name : Movie
Comment : 20.09.2020
Video #0
ID : 0
Format : MPEG-4 Visual
Format profile : Advanced [email protected]
Format settings, BVOP : 1
Format settings, QPel : No
Format settings, GMC : No warppoints
Format settings, Matrix : Custom
Codec ID :
Codec ID/Hint :
Duration : 2 h 15 min
Bit rate : 1 849 kb/s
Width : 720 pixels
Height : 304 pixels
Display aspect ratio : 2.35:1
Frame rate : 23.976 (24000/1001) FPS
Color space : YUV
Chroma subsampling : 4:2:0
Bit depth : 8 bits
Scan type : Progressive
Compression mode : Lossy
Bits/(Pixel*Frame) : 0.352
Stream size : 1.74 GiB (64%)
Writing library : 69
Audio #1
ID : 1
Format : AC-3
Format/Info : Audio Coding 3
Mode extension : CM (complete main)
Format settings, Endianness : Big
Codec ID : 2000
Duration : 2 h 14 min
Bit rate mode : Constant
Bit rate : 192 kb/s
Channel(s) : 2 channels
Channel positions : Front: L R
Sampling rate : 48.0 kHz
Frame rate : 31.250 FPS (1536 spf)
Compression mode : Lossy
Stream size : 185 MiB (7%)
Alignment : Split accross interleaves
Interleave, duration : 42 ms (1.00 video frame)
Interleave, preload duration : 500 ms
Audio #2
ID : 2
Format : AC-3
Format/Info : Audio Coding 3
Mode extension : CM (complete main)
Format settings, Endianness : Big
Codec ID : 2000
Duration : 2 h 15 min
Bit rate mode : Constant
Bit rate : 192 kb/s
Channel(s) : 2 channels
Channel positions : Front: L R
Sampling rate : 48.0 kHz
Frame rate : 31.250 FPS (1536 spf)
Compression mode : Lossy
Stream size : 185 MiB (7%)
Alignment : Split accross interleaves
Interleave, duration : 42 ms (1.00 video frame)
Interleave, preload duration : 500 ms
Audio #3
ID : 3
Format : AC-3
Format/Info : Audio Coding 3
Mode extension : CM (complete main)
Format settings, Endianness : Big
Codec ID : 2000
Duration : 2 h 15 min
Bit rate mode : Constant
Bit rate : 192 kb/s
Channel(s) : 2 channels
Channel positions : Front: L R
Sampling rate : 48.0 kHz
Frame rate : 31.250 FPS (1536 spf)
Compression mode : Lossy
Stream size : 185 MiB (7%)
Alignment : Split accross interleaves
Interleave, duration : 42 ms (1.00 video frame)
Interleave, preload duration : 500 ms
Audio #4
ID : 4
Format : AC-3
Format/Info : Audio Coding 3
Mode extension : CM (complete main)
Format settings, Endianness : Big
Codec ID : 2000
Duration : 2 h 15 min
Bit rate mode : Constant
Bit rate : 448 kb/s
Channel(s) : 6 channels
Channel positions : Front: L C R, Side: L R, LFE
Sampling rate : 48.0 kHz
Frame rate : 31.250 FPS (1536 spf)
Compression mode : Lossy
Stream size : 433 MiB (15%)
Alignment : Split accross interleaves
Interleave, duration : 42 ms (1.00 video frame)
Interleave, preload duration : 500 ms
Над фільмом працювали:
Запис з ТБ - slavik_v_z, tilda4334
Зведення - Gelios, kryk-v.ya.
Доріжка 3 - BOOGud
Український постер - Gelios
Українські субтитри - leicheman, BOOGud
Джейсон Борн / Jason Bourne (2016) Ukr/Eng | Sub Ukr/Eng

Джейсон Борн / Jason Bourne (2016) Ukr/Eng | Sub Ukr/Eng


Джейсон Борн. Повна колекція / Jason Bourne. Complete Collection (2002-2004-2007-2012-2016) 3xUkr/Eng | Sub Ukr/Eng


Жанр: бойовик
Країна: США



Кінокомпанія: Universal Pictures
Режисер: Пол Грінграсс
Актори: Мет Деймон / Matt Damon, Алісія Вікандер / Alicia Vikander, Томмі Лі Джонс / Tommy Lee Jones, Венсан Кассель / Vincent Cassel, Джулія Стайлз / Julia Stiles, Різ Ахмед / Riz Ahmed, Ато Ессонда / Ato Essandoh, Скотт Шеперд / Scott Shepherd, Білл Кемп / Bill Camp, Вінцез Кіфер / Vinzenz Kiefer та інші

Сюжет:
Світ на межі катастрофи, і це означає, що йому час повернутися. Неаполь, Мюнхен, Нью-Йорк - його ім'я знають всюди. Елітний суперагент, кращий з кращих, навіть у Лас-Веґасі гра піде по його правилам. Тому, що він - Джейсон Борн...


Тривалість: 02:03:11
Якість:
Відео:
кодек:
розмір кадру: 704x400
бітрейт: 1773 кб/с

Аудіо # 1:
мова: українська
переклад: професійний дубльований
кодек: 5.1
бітрейт: 448 кб/с
Інформація про дубляж:
Переклад: Олег Колесніков
Режисер дубляжу: Ольга Фокіна
Звукорежисер: Дмитро Мялковський
Звукорежисер перезапису: Боб Шевяков
Координатор проекту: Валентина Левицька
Ролі дублювали: Андрій Твердак, Антоніна Хижняк, Олександр Ігнатуша, Андрій Федінчик, Дмитро Гаврилов, Юрій Ребрик та інші.

Фільм надано компанією Universal Pictures. Дубльовано студією LeDoyen на замовлення компанії B&H Film Distribution.
Аудіо # 2:
мова: англійська
переклад: оригінал
кодек: 5.1
бітрейт: 448 кб/с

Субтитри #1: (Forced)
мова: українська
тип: програмні (м'які)
формат: *.srt

Субтитри #2: (Full)
мова: українська
тип: програмні (м'які)
формат: *.srt

Субтитри #3: (full)
мова: англійська
тип: програмні (м'які)
формат: *.srt
Скріншоти



Info
C:\Users\Admin\Downloads\The Bourne. Complete Collection (2002-2004-2007-2012-2016) [Hurtom]\Jason Bourne (2016) [Ukr,Eng] [Hurtom].avi
General
Complete name : C:\Users\Admin\Downloads\The Bourne. Complete Collection (2002-2004-2007-2012-2016) [Hurtom]\Jason Bourne (2016) [Ukr,Eng] [Hurtom].avi
Format : AVI
Format/Info : Audio Video Interleave
Format profile : OpenDML
File size : 2.25 GiB
Duration : 2 h 3 min
Overall bit rate : 2 612 kb/s
Writing application : VirtualDubMod 1.5.10.2 (build 2540/release)
Writing library : VirtualDubMod build 2540/release
Video #0
ID : 0
Format : MPEG-4 Visual
Format profile : Advanced [email protected]
Format settings, BVOP : 1
Format settings, QPel : No
Format settings, GMC : No warppoints
Format settings, Matrix : Custom
Codec ID :
Codec ID/Hint :
Duration : 2 h 3 min
Bit rate : 1 763 kb/s
Width : 720 pixels
Height : 304 pixels
Display aspect ratio : 2.35:1
Frame rate : 23.976 (23976/1000) FPS
Color space : YUV
Chroma subsampling : 4:2:0
Bit depth : 8 bits
Scan type : Progressive
Compression mode : Lossy
Bits/(Pixel*Frame) : 0.336
Stream size : 1.52 GiB (67%)
Writing library : 73
Audio #1
ID : 1
Format : AC-3
Format/Info : Audio Coding 3
Mode extension : CM (complete main)
Format settings, Endianness : Big
Codec ID : 2000
Duration : 2 h 3 min
Bit rate mode : Constant
Bit rate : 448 kb/s
Channel(s) : 6 channels
Channel positions : Front: L C R, Side: L R, LFE
Sampling rate : 48.0 kHz
Frame rate : 31.250 FPS (1536 spf)
Compression mode : Lossy
Stream size : 395 MiB (17%)
Alignment : Split accross interleaves
Interleave, duration : 42 ms (1.00 video frame)
Interleave, preload duration : 500 ms
Audio #2
ID : 2
Format : AC-3
Format/Info : Audio Coding 3
Mode extension : CM (complete main)
Format settings, Endianness : Big
Codec ID : 2000
Duration : 2 h 3 min
Bit rate mode : Constant
Bit rate : 384 kb/s
Channel(s) : 6 channels
Channel positions : Front: L C R, Side: L R, LFE
Sampling rate : 48.0 kHz
Frame rate : 31.250 FPS (1536 spf)
Compression mode : Lossy
Stream size : 338 MiB (15%)
Alignment : Split accross interleaves
Interleave, duration : 42 ms (1.00 video frame)
Interleave, preload duration : 500 ms
Подяка п.Hanway за якісний український 5.1 звук


Срібний реліз (на рейтинг впливає 50% завантаженого)
 Трекер:    Зареєстрований   

Завантажити / скачати фільм українською



відео для новачків



 Зареєстрований:   2021-01-14 01:07
 Розмір:   11.91 GB 
 Оцінка фільму:   9.4/10 (Голосів: 5)
   
21jumpstreet 
VIP


З нами з: 03.07.12
Востаннє: 19.01.21
Повідомлень: 1623

2021-01-13 23:15  
Тепер повний комплект сабів.
igor911 
Модератор відео


З нами з: 18.01.08
Востаннє: 19.01.21
Повідомлень: 15335

2021-01-13 23:30  
21jumpstreet написано:
Тепер повний комплект сабів.

Файли субтитрів треба було називати точно як і файл з фільмом з додаванням ".Ukr" для повних та ідентичним ім'ям файлу для форсованих - тоді б програвачі самі б підхоплювали потрібні субтитри.

21jumpstreet 
VIP


З нами з: 03.07.12
Востаннє: 19.01.21
Повідомлень: 1623

2021-01-14 01:09  
Реліз готовий!
Додано Info та перейменовано саби!

21jumpstreet 
VIP


З нами з: 03.07.12
Востаннє: 19.01.21
Повідомлень: 1623

2021-01-14 15:37  
Дуже крута бомбезна франшиза! Найкраща роль Мета Деймона. Останні дві частини програють трилогії! Тільки шкода, що дубляжу до Еволюції Борна немає, на жаль, а я пам'ятаю, що дубляж був класним.

Якби Світ тв продублювали трилогію!

Dimanix 
Частий відвідувач


З нами з: 04.03.12
Востаннє: 17.01.21
Повідомлень: 37

2021-01-17 22:44  
Jesus christ it's jason bourne! із задоволенням перегляну ще раз, дякую за реліз
Ваш часовий пояс: GMT + 2 Години

Нова тема   Відповісти