Гарні часи / Good Time (2017) 720p Ukr/Eng | Sub Eng

Нові коментарі

Нова тема   Відповісти
Автор Повідомлення
Anonymous 







2021-01-12 21:20  
Гарні часи / Good Time (2017) 720p Ukr/Eng | Sub Eng

Гарні часи / Good Time (2017) 720p Ukr/Eng | Sub Eng


Жанр: трилер, драма, кримінальний
Країна: США



Кінокомпанія: Elara Pictures, Rhea Films (II)
Режисер: Бен Сефді / Benny Safdie, Джош Сефді / Josh Safdie
Актори: Роберт Паттінсон / Robert Pattinson, Бен Сефді / Benny Safdie, Талія Вебстер / Taliah Webster, Дженніфер Джейсон Лі / Jennifer Jason Leigh, Баркхад Абді / Barkhad Abdi, Бадді Дюрес / Buddy Duress та інші.

Сюжет:
Зневірившись знайти роботу і дістати гроші на оплату рахунків, Конні планує пограбування банку. На наліт він бере свого рідного брата Ніка, який страждає розумовими відхиленнями. Пограбування проходить успішно, але у братів в руках вибухає пакет з фарбою, і Нік потрапляє в руки поліції. Відчуваючи провину за брата, а також розуміючи, як важко буде Ніку у в'язниці щодня, Конні вирішує, витягнути брата з рук поліції. Протягом однієї ночі, повної адреналіну, Конні робить відчайдушні спроби пробратися до Ніка і звільнити його.
Офіційний український трейлер:

Рейтинг MPAA: R - особам до 17 років обов'язкова присутність батьків або дорослого опікуна
Вікова категорія: 16+
Тривалість: 01:41:04
Якість: 720p [ріп від VietHD]
Відео:
кодек:
розмір кадру: 1280 x 536
бітрейт: 9050 кб/с

Аудіо # 1:
мова: українська
переклад: багатоголосий закадровий
кодек: 2.0 [стерео, 16 кГц]
бітрейт: 192 кб/с
примітка: у попередніх релізах з запису TV5 було це саме кінотеатральне озвучення, тільки гіршої якості (12 кГц)

Аудіо # 2:
мова: англійська
переклад: оригінал
кодек: 5.1
бітрейт: 640 кб/с

Субтитри:
мова: англійська
тип: програмні (м'які)
формат: *.srt

Збережено оригінальні розділи, як на Blu-ray
Info та log
Код:
Complete name               : Good Time (2017) [Ukr,Eng sub.Eng] 720p [Hurtom].
Format                      :
Format version              : Version 4
File size                   : 6.98 GiB
Duration                    : 1 h 41 min
Overall bit rate            : 9 885 kb/s
Movie name                  : Гарні часи / Good Time (2017) [Ukr,Eng sub.Eng] 720p [Hurtom]
Encoded date                : UTC 2021-01-12 23:58:48
Writing application         : v52.0.0 ('Secret For The Mad') 64-bit
Writing library             : libebml v1.4.1 + v1.6.2
Cover                       : Yes
Attachments                 : cover.jpg

Video
ID                          : 1
Format                      : AVC
Format/Info                 : Advanced Video Codec
Format profile              : [email protected]
Format settings             : CABAC / 12 Ref Frames
Format settings, CABAC      : Yes
Format settings, Reference  : 12 frames
Codec ID                    : V_MPEG4/ISO/AVC
Duration                    : 1 h 41 min
Bit rate                    : 9 050 kb/s
Width                       : 1 280 pixels
Height                      : 536 pixels
Display aspect ratio        : 2.40:1
Frame rate mode             : Constant
Frame rate                  : 24.000 FPS
Color space                 : YUV
Chroma subsampling          : 4:2:0
Bit depth                   : 8 bits
Scan type                   : Progressive
Bits/(Pixel*Frame)          : 0.550
Stream size                 : 6.39 GiB (92%)
Title                       : Гарні часи / Good Time (2017) 720p [VietHD - Djex]
Writing library             : core 152 r2851kMod ba24899
Encoding settings           : cabac=1 / ref=12 / deblock=1:-3:-3 / analyse=0x3:0x133 / me=umh / subme=10 / psy=1 / fade_compensate=0.00 / psy_rd=1.00:0.00 / mixed_ref=1 / me_range=24 / chroma_me=1 / trellis=2 / 8x8dct=1 / cqm=0 / deadzone=21,11 / fast_pskip=0 / chroma_qp_offset=-2 / threads=56 / lookahead_threads=4 / sliced_threads=0 / nr=0 / decimate=0 / interlaced=0 / bluray_compat=0 / constrained_intra=0 / bframes=8 / b_pyramid=2 / b_adapt=2 / b_bias=0 / direct=3 / weightb=1 / open_gop=0 / weightp=2 / keyint=250 / keyint_min=24 / scenecut=40 / intra_refresh=0 / rc_lookahead=60 / rc=crf / mbtree=0 / crf=19.5000 / qcomp=0.60 / qpmin=0 / qpmax=69 / qpstep=4 / vbv_maxrate=62500 / vbv_bufsize=78125 / crf_max=0.0 / nal_hrd=none / filler=0 / ip_ratio=1.30 / pb_ratio=1.20 / aq=3:0.70
Language                    : English
Default                     : Yes
Forced                      : No
Color range                 : Limited
Matrix coefficients         : BT.709

Audio #1
ID                          : 2
Format                      : AC-3
Format/Info                 : Audio Coding 3
Commercial name             : Dolby Digital
Codec ID                    : A_AC3
Duration                    : 1 h 41 min
Bit rate mode               : Constant
Bit rate                    : 192 kb/s
Channel(s)                  : 2 channels
Channel layout              : L R
Sampling rate               : 48.0 kHz
Frame rate                  : 31.250 FPS (1536 SPF)
Compression mode            : Lossy
Stream size                 : 139 MiB (2%)
Title                       : MVO, 2.0 [stereo, >16 kHz] 192 Kbps
Language                    : Ukrainian
Service kind                : Complete Main
Default                     : Yes
Forced                      : Yes

Audio #2
ID                          : 3
Format                      : AC-3
Format/Info                 : Audio Coding 3
Commercial name             : Dolby Digital
Codec ID                    : A_AC3
Duration                    : 1 h 41 min
Bit rate mode               : Constant
Bit rate                    : 640 kb/s
Channel(s)                  : 6 channels
Channel layout              : L R C LFE Ls Rs
Sampling rate               : 48.0 kHz
Frame rate                  : 31.250 FPS (1536 SPF)
Compression mode            : Lossy
Stream size                 : 463 MiB (6%)
Title                       : Original, 5.1 640 Kbps
Language                    : English
Service kind                : Complete Main
Default                     : No
Forced                      : No

Text
ID                          : 4
Format                      : UTF-8
Codec ID                    : S_TEXT/UTF8
Codec ID/Info               : UTF-8 Plain Text
Duration                    : 1 h 38 min
Bit rate                    : 72 b/s
Count of elements           : 1807
Stream size                 : 52.4 KiB (0%)
Title                       : Eng Full
Language                    : English
Default                     : No
Forced                      : No

Menu
00:00:00.000                : en:00:00:00.000
00:12:33.292                : en:00:12:33.292
00:25:52.500                : en:00:25:52.500
00:36:44.250                : en:00:36:44.250
00:49:38.000                : en:00:49:38.000
01:03:02.167                : en:01:03:02.167
01:15:24.458                : en:01:15:24.458
01:27:26.958                : en:01:27:26.958


Код:
log
[info]: frame I:674   Avg QP:21.15  size:166514
[info]: frame P:34670 Avg QP:22.51  size:114661
[info]: frame B:110216 Avg QP:24.00  size: 70915
[info]: consecutive B-frames:  2.7%  4.6%  9.4% 25.2% 15.8% 32.4%  5.9%  3.3%  0.8%
Оригінал <---------->Цей ріп





Джерело: &


 Трекер:    Зареєстрований   

Завантажити / скачати фільм українською



відео для новачків



 Зареєстрований:   2021-01-13 02:49
 Розмір:   6.98 GB 
 Оцінка фільму:   8.3/10 (Голосів: 8)
 ЗАЛИШАЙТЕСЬ ЯКОМОГА ДОВШЕ НА РОЗДАЧІ! ЗАВАНТАЖИВ САМ - ДАЙ ЗАВАНТАЖИТИ ІНШИМ!
   
Інші релізи
   Гарні часи / Good Time (2017) Ukr/Eng Arsenfpu  18 / 0   1.6 GB   2021-01-16 18:53 
   Гарні часи / Good Time (2017) AVC Ukr/Eng | Sub Eng drop_plz  9 / 0   2.88 GB   2018-12-08 22:59 
bot 
робот


З нами з: 30.09.07
Востаннє: 26.05.05
Повідомлень: 26989

2021-01-13 02:49  
Тему перенесено з Анонси релізів до форуму Фільми в HD


igor911

qarty1 
VIP


З нами з: 01.11.09
Востаннє: 27.01.21
Повідомлень: 408

2021-01-15 21:32  
не погане кіно весь час в напрузі тримає 7/10
waldi-hurtom 
VIP


З нами з: 07.10.12
Востаннє: 27.01.21
Повідомлень: 1256

2021-01-22 18:57  
Я оце не зрозумів, хто з двох братів дебіл? Здається, обидва. Режисер зі сценаристом теж. Як ти не дебіл, навіщо на пограбування брати з собою розумово відсталого брата? Ну і далі все в подібному безголовому ключі відбувається. Навіть не пам'ятаю, чи додивився, чи заснув, чи просто набридло. Хочеться адреналіну - сунь два пальці у розетку. Десь 1 з 10.
Ваш часовий пояс: GMT + 2 Години

Нова тема   Відповісти