Різдвяні канікули / Christmas Vacation (1989) 1080p H.265 3xUkr/Eng | Sub Eng

Нові коментарі

Нова тема   Відповісти
Автор Повідомлення
Anonymous 







2021-01-12 20:42  
Різдвяні канікули / Christmas Vacation (1989) 1080p H.265 3xUkr/Eng | Sub Eng

Різдвяні канікули / Christmas Vacation (1989) 1080p H.265 3xUkr/Eng | Sub Eng


Жанр: комедія, сімейний
Країна: США
Кінокомпанія: Warner Bros. Pictures, Hughes Entertainment
Режисер: Джеремая С. Чечік (Jeremiah S. Chechik)
Актори: Чеві Чейз (Chevy Chase), Беверлі Д'Анжело (Beverly D'Angelo), Джулієт Люіс (Juliette Lewis), Джонні Ґелекі (Johnny Galecki), Джон Рендольф (John Randolph), Даян Лед (Diane Ladd), І. Джі. Маршал (E.G. Marshall), Доріс Робертс (Doris Roberts), Ренді Квейд (Randy Quaid), Сем МакМюрей (Sam McMurray), Міріам Флін (Miriam Flynn), Вільям Гайкі (William Hickey) та інші.

Сюжет:
У будинку Ґрізвольдів святкують Різдво. Час, коли дарують подарунки, співають колядки, радісно мерехтять вогники різдвяної ялинки ... Але стривайте-но: ця ялинка зовсім не мерехтить. Вона вся у вогні! Різдво – прекрасний час для Кларка Ґрізвольд і його родини.

Тривалість: 01:37:11
Якість:

Відео:
кодек: H.265 (HEVC)
розмір кадру: 1908 x 1080
бітрейт: 10 804 кб/с
бітова глибина: 10 біт

Увага! Перед завантаженням переконайтесь, що ваш пристрій відтворення (та/або ПЗ) підтримує H.265 (HEVC)

Аудіо # 1:
мова: українська
озвучення: багатоголосе закадрове
кодек: AC-3 2.0
бітрейт: 192 кб/с

Аудіо # 2:
мова: українська
озвучення: двоголосе закадрове
кодек: AC-3 2.0
бітрейт: 192 кб/с

Аудіо # 3:
мова: українська
озвучення: багатоголосе закадрове
кодек: AC-3 2.0
бітрейт: 192 кб/с

Аудіо # 4:
мова: англійська
озвучення: оригінал
кодек: AC-3 2.0
бітрейт: 192 кб/с

Субтитри # 1-2: (Full, SDH)
мова: англійська
тип: програмні (м'які)
формат: *.srt


Інформація про файл
Код:
General
Unique ID                                : 278575301891322061829064235481017922089 (0xD193A6CD27C0645EFD544BE2B900B229)
Complete name                            : Christmas Vacation (1989) 1080p H.265 [3xUKR_ENG] [Hurtom].
Format                                   :
Format version                           : Version 4
File size                                : 7.86 GiB
Duration                                 : 1 h 37 min
Overall bit rate                         : 11.6 Mb/s
Movie name                               : Різдвяні канікули / Christmas Vacation (1989)
Encoded date                             : UTC 2021-01-12 18:35:30
Writing application                      : v20.0.0 ('I Am The Sun') 64-bit
Writing library                          : libebml v1.3.5 + v1.4.8
Cover                                    : Yes
Attachments                              : Cover.jpg

Video
ID                                       : 1
Format                                   : HEVC
Format/Info                              : High Efficiency Video Coding
Format profile                           : Main [email protected]@High
Codec ID                                 : V_MPEGH/ISO/HEVC
Duration                                 : 1 h 37 min
Bit rate                                 : 10.8 Mb/s
Width                                    : 1 908 pixels
Height                                   : 1 080 pixels
Display aspect ratio                     : 16:9
Frame rate mode                          : Constant
Frame rate                               : 23.976 (24000/1001) FPS
Color space                              : YUV
Chroma subsampling                       : 4:2:0
Bit depth                                : 10 bits
Bits/(Pixel*Frame)                       : 0.219
Stream size                              : 7.33 GiB (93%)
Title                                    : Різдвяні канікули / Christmas Vacation (1989)
Writing library                          : x265 3.4+10-g25b2c0703:[Windows][MSVC 1927][64 bit] 10bit
Encoding settings                        : cpuid=1111039 / frame-threads=4 / numa-pools=16 / wpp / no-pmode / no-pme / no-psnr / no-ssim / log-level=2 / input-csp=1 / input-res=1908x1080 / interlace=0 / total-frames=139812 / level-idc=41 / high-tier=1 / uhd-bd=0 / ref=5 / no-allow-non-conformance / no-repeat-headers / annexb / no-aud / no-hrd / info / hash=0 / no-temporal-layers / open-gop / min-keyint=23 / keyint=240 / gop-lookahead=0 / bframes=14 / b-adapt=2 / b-pyramid / bframe-bias=0 / rc-lookahead=60 / lookahead-slices=4 / scenecut=40 / hist-scenecut=0 / radl=0 / no-splice / no-intra-refresh / ctu=32 / min-cu-size=8 / rect / amp / max-tu-size=32 / tu-inter-depth=4 / tu-intra-depth=4 / limit-tu=1 / rdoq-level=2 / dynamic-rd=0.00 / no-ssim-rd / signhide / no-tskip / nr-intra=0 / nr-inter=0 / no-constrained-intra / no-strong-intra-smoothing / max-merge=4 / limit-refs=2 / limit-modes / me=3 / subme=7 / merange=57 / temporal-mvp / no-frame-dup / no-hme / weightp / weightb / no-analyze-src-pics / deblock=-3:-3 / no-sao / no-sao-non-deblock / rd=6 / selective-sao=0 / no-early-skip / no-rskip / no-fast-intra / no-tskip-fast / no-cu-lossless / no-b-intra / no-splitrd-skip / rdpenalty=0 / psy-rd=2.00 / psy-rdoq=1.00 / no-rd-refine / no-lossless / cbqpoffs=0 / crqpoffs=0 / rc=crf / crf=19.8 / qcomp=0.60 / qpstep=4 / stats-write=0 / stats-read=0 / vbv-maxrate=50000 / vbv-bufsize=50000 / vbv-init=0.9 / crf-max=0.0 / crf-min=0.0 / ipratio=1.40 / pbratio=1.30 / aq-mode=1 / aq-strength=1.00 / no-cutree / zone-count=0 / no-strict-cbr / qg-size=32 / no-rc-grain / qpmax=69 / qpmin=0 / no-const-vbv / sar=1 / overscan=0 / videoformat=5 / range=0 / colorprim=1 / transfer=1 / colormatrix=1 / chromaloc=0 / display-window=0 / cll=0,0 / min-luma=0 / max-luma=1023 / log2-max-poc-lsb=8 / vui-timing-info / vui-hrd-info / slices=1 / no-opt-qp-pps / no-opt-ref-list-length-pps / no-multi-pass-opt-rps / scenecut-bias=0.05 / hist-threshold=0.01 / no-opt-cu-delta-qp / no-aq-motion / no-hdr10 / no-hdr10-opt / no-dhdr10-opt / no-idr-recovery-sei / analysis-reuse-level=0 / analysis-save-reuse-level=0 / analysis-load-reuse-level=0 / scale-factor=0 / refine-intra=0 / refine-inter=0 / refine-mv=1 / refine-ctu-distortion=0 / no-limit-sao / ctu-info=0 / no-lowpass-dct / refine-analysis-type=0 / copy-pic=1 / max-ausize-factor=1.0 / no-dynamic-refine / no-single-sei / no-hevc-aq / no-svt / no-field / qp-adaptation-range=1.00 / no-scenecut-aware-qpconformance-window-offsets / right=0 / bottom=0 / decoder-max-rate=0
Default                                  : Yes
Forced                                   : No
Color range                              : Limited
Color primaries                          : BT.709
Transfer characteristics                 : BT.709
Matrix coefficients                      : BT.709

Audio #1
ID                                       : 2
Format                                   : AC-3
Format/Info                              : Audio Coding 3
Commercial name                          : Dolby Digital
Codec ID                                 : A_AC3
Duration                                 : 1 h 37 min
Bit rate mode                            : Constant
Bit rate                                 : 192 kb/s
Channel(s)                               : 2 channels
Channel layout                           : L R
Sampling rate                            : 48.0 kHz
Frame rate                               : 31.250 FPS (1536 SPF)
Compression mode                         : Lossy
Stream size                              : 133 MiB (2%)
Title                                    : AC-3 / 2.0 Ch / 192 kbps / MVO / К1
Language                                 : Ukrainian
Service kind                             : Complete Main
Default                                  : Yes
Forced                                   : Yes

Audio #2
ID                                       : 3
Format                                   : AC-3
Format/Info                              : Audio Coding 3
Commercial name                          : Dolby Digital
Codec ID                                 : A_AC3
Duration                                 : 1 h 37 min
Bit rate mode                            : Constant
Bit rate                                 : 192 kb/s
Channel(s)                               : 2 channels
Channel layout                           : L R
Sampling rate                            : 48.0 kHz
Frame rate                               : 31.250 FPS (1536 SPF)
Compression mode                         : Lossy
Delay relative to video                  : 266 ms
Stream size                              : 133 MiB (2%)
Title                                    : AC-3 / 2.0 Ch / 192 kbps / DVO / 1+1
Language                                 : Ukrainian
Service kind                             : Complete Main
Default                                  : No
Forced                                   : No

Audio #3
ID                                       : 4
Format                                   : AC-3
Format/Info                              : Audio Coding 3
Commercial name                          : Dolby Digital
Codec ID                                 : A_AC3
Duration                                 : 1 h 37 min
Bit rate mode                            : Constant
Bit rate                                 : 192 kb/s
Channel(s)                               : 2 channels
Channel layout                           : L R
Sampling rate                            : 48.0 kHz
Frame rate                               : 31.250 FPS (1536 SPF)
Compression mode                         : Lossy
Delay relative to video                  : 266 ms
Stream size                              : 133 MiB (2%)
Title                                    : AC-3 / 2.0 Ch / 192 kbps / MVO / ICTV / Студія ТВ+
Language                                 : Ukrainian
Service kind                             : Complete Main
Default                                  : No
Forced                                   : No

Audio #4
ID                                       : 5
Format                                   : AC-3
Format/Info                              : Audio Coding 3
Commercial name                          : Dolby Digital
Codec ID                                 : A_AC3
Duration                                 : 1 h 37 min
Bit rate mode                            : Constant
Bit rate                                 : 192 kb/s
Channel(s)                               : 2 channels
Channel layout                           : L R
Sampling rate                            : 48.0 kHz
Frame rate                               : 31.250 FPS (1536 SPF)
Compression mode                         : Lossy
Stream size                              : 133 MiB (2%)
Title                                    : AC-3 / 2.0 Ch / 192 kbps / Original
Language                                 : English
Service kind                             : Complete Main
Default                                  : No
Forced                                   : No

Text #1
ID                                       : 6
Format                                   : UTF-8
Codec ID                                 : S_TEXT/UTF8
Codec ID/Info                            : UTF-8 Plain Text
Duration                                 : 1 h 33 min
Bit rate                                 : 54 b/s
Count of elements                        : 852
Stream size                              : 37.3 KiB (0%)
Title                                    : Full
Language                                 : English
Default                                  : No
Forced                                   : No

Text #2
ID                                       : 7
Format                                   : UTF-8
Codec ID                                 : S_TEXT/UTF8
Codec ID/Info                            : UTF-8 Plain Text
Duration                                 : 1 h 34 min
Bit rate                                 : 56 b/s
Count of elements                        : 960
Stream size                              : 38.9 KiB (0%)
Title                                    : SDH
Language                                 : English
Default                                  : No
Forced                                   : No

Menu
00:00:00.000                             : en:Credits (Christmas Vacation)
00:02:39.492                             : en:Uneasy Riders
00:07:01.045                             : en:The Griswolds' Christmas Tree
00:10:51.150                             : en:Family Planning
00:12:41.677                             : en:Well Remembered
00:14:55.561                             : en:Browsing
00:17:31.717                             : en:In-Law Invasion
00:19:31.920                             : en:Let There Be Light-Almost
00:29:45.492                             : en:Prisoner of the Attic (That Spirit of Christmas)
00:35:42.974                             : en:The Light Fantastic
00:41:37.161                             : en:Eddie and Company
00:44:41.303                             : en:Glad to Be Here
00:47:23.799                             : en:Yuletide Cheer From Mr. Shirley
00:48:36.413                             : en:Going Downhill
00:51:28.627                             : en:In the Swin (Mele Kalikimaka)
00:57:28.987                             : en:Santa Griswold?
00:59:43.580                             : en:A List for Santa
01:01:42.365                             : en:Aunt Bethany and Uncle Lewis
01:04:16.519                             : en:Christmas Eve Dinner
01:07:08.607                             : en:Feline Mischief
01:10:22.676                             : en:Up in Smoke
01:11:59.231                             : en:Unspecial Delivery
01:16:28.917                             : en:A Replacement
01:18:38.672                             : en:Critters on the Loose
01:22:31.988                             : en:Hell's Threshold
01:25:11.564                             : en:Scrooge Unscrooged
01:28:38.479                             : en:Fuller House (Here Comes Santa Claus)
01:31:19.807                             : en:The Rocket's Red Glare
01:33:50.708                             : en:End Credits (Christmas Vacation Reprise)
Лог кодування
Код:
x265 [info]: frame I: Avg QP:18.21
x265 [info]: frame P: Avg QP:19.31
x265 [info]: frame B: Avg QP:22.10
Світлини




Джерело: &
Особиста оцінка: 0 - не дивився


Срібний реліз (на рейтинг впливає 50% завантаженого)
 Трекер:    Зареєстрований   

Завантажити / скачати фільм українською



відео для новачків



 Зареєстрований:   2021-01-12 20:42
 Розмір:   7.86 GB 
 Оцінка фільму:   10/10 (Голосів: 6)
   
Ваш часовий пояс: GMT + 2 Години

Нова тема   Відповісти