НаркоМАМА (Mama Weed) / La daronne (2020) 1080p Ukr/Fre | Sub Eng

Нові коментарі

Нова тема   Відповісти
Автор Повідомлення
kryk-v.ya. 
Попереджень: 1
Попереджень: 1 


З нами з: 14.02.14
Востаннє: 18.01.21
Повідомлень: 2432

2021-01-12 18:04  
НаркоМАМА (Mama Weed) / La daronne (2020) 1080p Ukr/Fre | Sub Eng

НаркоМАМА (Mama Weed) / La daronne (2020) 1080p Ukr/Fre | Sub Eng


Жанр: комедія, кримінальний, драма
Країна: Франція



Кінокомпанія: Les Films du Lendemain, La Boetie Films, Le Pacte, Scope Pictures, Franklin Films, Les Films de la Greluche, Restons Groupés Production, Les Films du Camélia, Canal+, OCS, Cofimage 30, Cinéventure 4, La Région Île-de-France, Centre National du Cinéma et de l'Image Animée

Режисер: Жан-Поль Саломе / Jean-Paul Salomé
Актори: Ізабель Юппер / Isabelle Huppert, Іпполіт Жирардо / Hippolyte Girardot, Фаріда Ушані / Farida Ouchani, Ліліан Ровер / Liliane Rovère, Айріс Брай / Iris Bry, Надя Нгуйєн / Nadja Nguyen, Ребекка Мардер / Rebecca Marder, Рашид Гуеллаз / Rachid Guellaz, Мурад Будауд / Mourad Boudaoud, Юссеф Сарауі / Youssef Sahraoui та інші.

Сюжет:
Талановита перекладачка працює в поліції, допомагає розкривати злочини. Одного разу їй стає відомо про велику партію наркотиків. Спокуса змінити життя надто велика. І от вона перетворюється на НаркоМаму, і будує свою імперію. Тепер вся поліція полює на неї.


Тривалість: 01:45:16
Якість: 1080р
Відео:
кодек:
розмір кадру: 1920 х 804
бітрейт: 11,6 Mb/с

Аудіо # 1:
мова: українська
переклад: багатоголосий закадровий
кодек: 5.1
бітрейт: 384 кб/с

Аудіо # 2:
мова: французька
переклад: оригінал
кодек: 5.1
бітрейт: 640 кб/с

Субтитри:
мова: англійська
тип: програмні (м'які)
формат: *.srt
Info
General
Unique ID : 8483430469885970902250422379236407382 (0x661D96A3CD74BFBA9E297792FC9B856)
Complete name : D:\LOUD\La Daronne (2020) 1080p (Hurtom).
Format :
Format version : Version 4
File size : 9.28 GiB
Duration : 1 h 45 min
Overall bit rate : 12.6 Mb/s
Encoded date : UTC 2021-01-12 10:29:14
Writing application : v25.0.0 ('Prog Noir') 64-bit
Writing library : libebml v1.3.6 + v1.4.9
Cover : Yes
Attachments : cover.jpg

Video
ID : 1
Format : AVC
Format/Info : Advanced Video Codec
Format profile : [email protected]
Format settings : CABAC / 5 Ref Frames
Format settings, CABAC : Yes
Format settings, Reference : 5 frames
Codec ID : V_MPEG4/ISO/AVC
Duration : 1 h 45 min
Bit rate : 11.6 Mb/s
Width : 1 920 pixels
Height : 804 pixels
Display aspect ratio : 2.40:1
Frame rate mode : Constant
Frame rate : 23.976 (24000/1001) FPS
Color space : YUV
Chroma subsampling : 4:2:0
Bit depth : 8 bits
Scan type : Progressive
Bits/(Pixel*Frame) : 0.313
Stream size : 8.52 GiB (92%)
Writing library : core 161 -from seleZen
Encoding settings : cabac=1 / ref=5 / deblock=1:-2:-2 / analyse=0x3:0x113 / me=umh / subme=10 / psy=1 / psy_rd=1.06:0.05 / mixed_ref=1 / me_range=32 / chroma_me=1 / trellis=2 / 8x8dct=1 / cqm=0 / deadzone=21,11 / fast_pskip=0 / chroma_qp_offset=-3 / threads=24 / lookahead_threads=4 / sliced_threads=0 / nr=0 / decimate=0 / interlaced=0 / bluray_compat=0 / constrained_intra=0 / bframes=9 / b_pyramid=2 / b_adapt=2 / b_bias=0 / direct=3 / weightb=1 / open_gop=0 / weightp=2 / keyint=240 / keyint_min=23 / scenecut=40 / intra_refresh=0 / rc_lookahead=40 / rc=2pass / mbtree=0 / bitrate=11600 / ratetol=1.0 / qcomp=0.60 / qpmin=0 / qpmax=51 / qpstep=4 / cplxblur=20.0 / qblur=0.5 / vbv_maxrate=50000 / vbv_bufsize=62000 / nal_hrd=none / filler=0 / ip_ratio=1.40 / pb_ratio=1.30 / aq=3:0.80
Language : French
Default : Yes
Forced : No

Audio #1
ID : 2
Format : AC-3
Format/Info : Audio Coding 3
Commercial name : Dolby Digital
Codec ID : A_AC3
Duration : 1 h 45 min
Bit rate mode : Constant
Bit rate : 384 kb/s
Channel(s) : 6 channels
Channel layout : L R C LFE Ls Rs
Sampling rate : 48.0 kHz
Frame rate : 31.250 FPS (1536 SPF)
Compression mode : Lossy
Stream size : 289 MiB (3%)
Title : MVO
Language : Ukrainian
Service kind : Complete Main
Default : Yes
Forced : No

Audio #2
ID : 3
Format : AC-3
Format/Info : Audio Coding 3
Commercial name : Dolby Digital
Codec ID : A_AC3
Duration : 1 h 45 min
Bit rate mode : Constant
Bit rate : 640 kb/s
Channel(s) : 6 channels
Channel layout : L R C LFE Ls Rs
Sampling rate : 48.0 kHz
Frame rate : 31.250 FPS (1536 SPF)
Compression mode : Lossy
Stream size : 482 MiB (5%)
Title : Original
Language : French
Service kind : Complete Main
Default : No
Forced : No

Text
ID : 4
Format : UTF-8
Codec ID : S_TEXT/UTF8
Codec ID/Info : UTF-8 Plain Text
Duration : 1 h 43 min
Bit rate : 42 b/s
Count of elements : 1192
Stream size : 32.6 KiB (0%)
Title : Full
Language : English
Default : Yes
Forced : No

Menu
00:00:00.000 : fr:Розділ 01
00:07:51.346 : fr:Розділ 02
00:15:56.581 : fr:Розділ 03
00:23:09.054 : fr:Розділ 04
00:31:07.824 : fr:Розділ 05
00:39:49.971 : fr:Розділ 06
00:47:00.401 : fr:Розділ 07
00:55:30.911 : fr:Розділ 08
01:05:44.065 : fr:Розділ 09
01:14:08.444 : fr:Розділ 10
01:23:14.823 : fr:Розділ 11
01:31:47.377 : fr:Розділ 12
01:40:11.964 : fr:Розділ 13
Скріншоти
Джерело: & eneyida.tv
Особиста оцінка: 6 - третій сорт - не брак


 Трекер:    Зареєстрований   

Завантажити / скачати фільм українською



відео для новачків



 Зареєстрований:   2021-01-12 18:04
 Розмір:   9.28 GB 
 Оцінка фільму:   10/10 (Голосів: 8)
   
Інші релізи
   НаркоМАМА (Mama Weed) / La daronne (2020) 1080p H.265 Ukr/Fre | Sub Eng -Star-Lord-  9 / 1   5.82 GB   2021-01-16 14:11 
   НаркоМАМА (Mama Weed) / La daronne (2020) Ukr/Fre antik_2008  71 / 0   1.98 GB   2021-01-13 01:53 
   НаркоМАМА / La daronne (2020) Remux 1080p Ukr/Fre | Sub Fre/Eng staf777  15 / 0   29.1 GB   2021-01-12 14:45 
   НаркоМАМА (Mama Weed) / La daronne (2020) 720p Ukr/Fre | Sub Eng igor911  24 / 1   5.74 GB   2021-01-12 14:20 
   НаркоМАМА / La daronne (2020) AVC Ukr/Fre | Sub Eng eneyida.tv  94 / 1   2.46 GB   2021-01-12 12:18 
Ваш часовий пояс: GMT + 2 Години

Нова тема   Відповісти