Душа / Soul (2020) 4K 2160p HDR H.265 2xUkr/Eng | sub Eng

Нові коментарі

Нова тема   Відповісти
Автор Повідомлення
u4col 
Новенький


З нами з: 03.10.11
Востаннє: 03.03.21
Повідомлень: 11

2021-01-12 15:35  
Душа / Soul (2020) 4K 2160p HDR H.265 2xUkr/Eng | sub Eng

Душа / Soul (2020) 4K 2160p HDR H.265 2xUkr/Eng | sub Eng


Жанр: анімація, музичний, комедія, пригодницький, фентезі, сімейний
Країна: США



Кінокомпанія: Walt Disney Pictures, Pixar Animation Studios
Режисер: Піт Доктер, Кемп Паверс
Актори: Джеймi Фокс, Тіна Фей, Давід Діґґс, Філісія Рашад, Анджела Бассетт, Рейчел Гаус, Аліса Браґа, Річард Айоаде Джун Скуіб, Вес Стьюді та інші

Сюжет:
Джо Гарднер, вчитель музики в середній школі, давно мріяв виконати джазову музику на сцені і, нарешті, отримав шанс справити враження на інших джазових музикантів під час виступу в Half Note Club. Однак внаслідок нещасного випадку душа Гарднера відділяється від свого тіла і переноситься на Семінар «You», в якому душі розвиваються і набувають пристрасті перед тим, як їх переносять до новонародженої дитині, і Гарднер повинен працювати з душами на тренуваннях...


Тривалість: 01:40:34
Якість: 4K 2160p

Відео:
кодек: H.265 (HEVC)
розмір кадру: 3840 х 2160
бітрейт: 22,3 Мбіт/сек
бітова глибина: 10 біт
кольоровий простір: BT.2020 (HDR)
Увага! Перед завантаженням переконайтесь, що ваш пристрій відтворення (та/або ПЗ) підтримує H.265 (HEVC)

Аудіо # 1:
мова: українська
переклад: багатоголосий закадровий | Dniprofilm
кодек: 5.1
бітрейт: 384 кб/с

Аудіо # 2:
мова: українська
переклад: професійний дубльований | Студія "LeDoyen"
кодек: 2.0
бітрейт: 192 кб/с

Аудіо # 3:
мова: англійська
озвучення: оригінал
кодек: E- 5.1
бітрейт: 768 кб/с

Субтитри # 1-2:
мова: англійська
тип: програмні (м'які)
формат: *.srt
Info
General
Unique ID : 180977486349561026461135545780798681077 (0x8826FEFB4D291822B28810AE07A2EFF5)
Complete name : D:\Video\Soul.2020.2160p..HDR.x265.2xUkr-Eng.
Format :
Format version : Version 4
File size : 16.6 GiB
Duration : 1 h 40 min
Overall bit rate : 23.6 Mb/s
Movie name : Душа / Soul (2020) 2160p Ukr/Eng | sub Eng
Encoded date : UTC 2021-01-15 17:20:58
Writing application : v9.4.2 ('So High') 64bit
Writing library : libebml v1.3.4 + v1.4.5
Cover : Yes
Attachments : cover.jpg

Video
ID : 1
Format : HEVC
Format/Info : High Efficiency Video Coding
Format profile : Main [email protected]@Main
Codec ID : V_MPEGH/ISO/HEVC
Duration : 1 h 40 min
Bit rate : 22.3 Mb/s
Width : 3 840 pixels
Height : 2 160 pixels
Display aspect ratio : 16:9
Frame rate mode : Constant
Frame rate : 23.976 (24000/1001) FPS
Color space : YUV
Chroma subsampling : 4:2:0
Bit depth : 10 bits
Bits/(Pixel*Frame) : 0.112
Stream size : 15.6 GiB (94%)
Writing library : x265 3.4:[Linux][GCC 7.5.0][64 bit] 10bit
Encoding settings : cpuid=1111039 / frame-threads=1 / wpp / no-pmode / no-pme / no-psnr / no-ssim / log-level=2 / input-csp=1 / input-res=3840x2160 / interlace=0 / total-frames=0 / level-idc=50 / high-tier=0 / uhd-bd=0 / ref=3 / no-allow-non-conformance / repeat-headers / annexb / no-aud / no-hrd / info / hash=0 / no-temporal-layers / no-open-gop / min-keyint=48 / keyint=48 / gop-lookahead=0 / bframes=2 / b-adapt=0 / b-pyramid / bframe-bias=0 / rc-lookahead=48 / lookahead-slices=8 / scenecut=0 / hist-scenecut=0 / radl=0 / no-splice / no-intra-refresh / ctu=32 / min-cu-size=8 / no-rect / no-amp / max-tu-size=16 / tu-inter-depth=2 / tu-intra-depth=2 / limit-tu=0 / rdoq-level=1 / dynamic-rd=0.00 / no-ssim-rd / signhide / no-tskip / nr-intra=0 / nr-inter=0 / no-constrained-intra / no-strong-intra-smoothing / max-merge=3 / limit-refs=1 / no-limit-modes / me=1 / subme=2 / merange=44 / temporal-mvp / no-frame-dup / no-hme / weightp / no-weightb / no-analyze-src-pics / deblock=0:0 / no-sao / no-sao-non-deblock / rd=4 / selective-sao=0 / early-skip / rskip / no-fast-intra / no-tskip-fast / no-cu-lossless / b-intra / no-splitrd-skip / rdpenalty=1 / psy-rd=1.60 / psy-rdoq=5.00 / no-rd-refine / no-lossless / cbqpoffs=0 / crqpoffs=0 / rc=abr / bitrate=23000 / qcomp=0.75 / qpstep=4 / stats-write=0 / stats-read=0 / vbv-maxrate=25000 / vbv-bufsize=25000 / vbv-init=0.9 / ipratio=1.40 / pbratio=1.30 / aq-mode=3 / aq-strength=1.00 / no-cutree / zone-count=0 / no-strict-cbr / qg-size=32 / no-rc-grain / qpmax=69 / qpmin=0 / no-const-vbv / sar=1 / overscan=0 / videoformat=5 / range=0 / colorprim=9 / transfer=16 / colormatrix=9 / chromaloc=0 / display-window=0 / cll=0,0 / min-luma=0 / max-luma=1023 / log2-max-poc-lsb=8 / vui-timing-info / vui-hrd-info / slices=1 / no-opt-qp-pps / no-opt-ref-list-length-pps / no-multi-pass-opt-rps / scenecut-bias=0.00 / hist-threshold=0.01 / no-opt-cu-delta-qp / no-aq-motion / no-hdr10 / hdr10-opt / no-dhdr10-opt / no-idr-recovery-sei / analysis-reuse-level=0 / analysis-save-reuse-level=0 / analysis-load-reuse-level=0 / scale-factor=0 / refine-intra=0 / refine-inter=0 / refine-mv=1 / refine-ctu-distortion=0 / no-limit-sao / ctu-info=0 / no-lowpass-dct / refine-analysis-type=0 / copy-pic=1 / max-ausize-factor=1.0 / no-dynamic-refine / no-single-sei / no-hevc-aq / no-svt / no-field / qp-adaptation-range=1.00 / no-scenecut-aware-qpconformance-window-offsets / right=0 / bottom=0
Default : Yes
Forced : No
Color range : Limited
Color primaries : BT.2020
Transfer characteristics : PQ
Matrix coefficients : BT.2020 non-constant

Audio #1
ID : 2
Format : AC-3
Format/Info : Audio Coding 3
Commercial name : Dolby Digital
Codec ID : A_AC3
Duration : 1 h 40 min
Bit rate mode : Constant
Bit rate : 384 kb/s
Channel(s) : 6 channels
Channel layout : L R C LFE Ls Rs
Sampling rate : 48.0 kHz
Frame rate : 31.250 FPS (1536 SPF)
Compression mode : Lossy
Stream size : 276 MiB (2%)
Title : MVO [Студія «Dniprofilm»] • 5.1 @ 384 Kbps
Language : Ukrainian
Service kind : Complete Main
Default : Yes
Forced : Yes

Audio #2
ID : 3
Format : AC-3
Format/Info : Audio Coding 3
Commercial name : Dolby Digital
Codec ID : A_AC3
Duration : 1 h 40 min
Bit rate mode : Constant
Bit rate : 192 kb/s
Channel(s) : 2 channels
Channel layout : L R
Sampling rate : 48.0 kHz
Frame rate : 31.250 FPS (1536 SPF)
Compression mode : Lossy
Delay relative to video : 3 s 0 ms
Stream size : 138 MiB (1%)
Title : Dub [Студія «LeDoyen», Line In] • 2.0 @ 192 Kbps
Language : Ukrainian
Service kind : Complete Main
Default : No
Forced : No

Audio #3
ID : 4
Format : E-AC-3 JOC
Format/Info : Enhanced AC-3 with Joint Object Coding
Commercial name : Dolby Digital Plus with Dolby Atmos
Codec ID : A_EAC3
Duration : 1 h 40 min
Bit rate mode : Constant
Bit rate : 768 kb/s
Channel(s) : 6 channels
Channel layout : L R C LFE Ls Rs
Sampling rate : 48.0 kHz
Frame rate : 31.250 FPS (1536 SPF)
Compression mode : Lossy
Stream size : 552 MiB (3%)
Title : English
Language : English
Service kind : Complete Main
Default : No
Forced : No
Complexity index : 16
Number of dynamic objects : 15
Bed channel count : 1 channel
Bed channel configuration : LFE

Text #1
ID : 5
Format : UTF-8
Codec ID : S_TEXT/UTF8
Codec ID/Info : UTF-8 Plain Text
Duration : 1 h 39 min
Bit rate : 68 b/s
Count of elements : 1599
Stream size : 49.9 KiB (0%)
Title : English
Language : English
Default : No
Forced : No

Text #2
ID : 6
Format : UTF-8
Codec ID : S_TEXT/UTF8
Codec ID/Info : UTF-8 Plain Text
Duration : 1 h 40 min
Bit rate : 78 b/s
Count of elements : 1855
Stream size : 57.7 KiB (0%)
Title : English [SDH]
Language : English
Default : No
Forced : No
Скріншоти

Джерело: &
Особиста оцінка: 0 - не дивився


Авторський реліз (завантажувати можна без реєстрації)
 Трекер:    Зареєстрований   

Завантажити / скачати мультфільм українською



відео для новачків



 Зареєстрований:   2021-01-15 19:50
 Розмір:   16.58 GB 
 Оцінка мультфільму:   9.8/10 (Голосів: 31)
   
Інші релізи
   Душа / Soul (2020) 1080p 2xUkr/Eng | sub Eng BASTERD-94  187 / 0   5.65 GB   2021-01-16 13:33 
   Душа / Soul (2020) 2xUkr/Eng BASTERD-94  131 / 0   1.73 GB   2021-01-16 12:51 
   Душа / Soul (2020) 720p 2xUkr/Eng | Sub Eng igor911  71 / 0   3.3 GB   2021-01-15 17:47 
   Душа / Soul (2020) AVC Ukr/Eng | sub Eng eneyida.tv  215 / 1   2.13 GB   2021-01-09 22:02 
igor911 
Модератор відео


З нами з: 18.01.08
Востаннє: 04.03.21
Повідомлень: 15617

2021-01-12 15:49  
u4col написано:
Аудіо:
бітрейт: кб/с

Оформіть реліз через Майстер оформлення релізу https://toloka.to/release.php

Arete 
Новенький


З нами з: 23.09.16
Востаннє: 04.03.21
Повідомлень: 10

2021-01-12 20:14  
Дивився в кінотеатрі - хороший мультфільм, рекомендую.
dimadiana 
Частий відвідувач


З нами з: 14.12.09
Востаннє: 02.02.21
Повідомлень: 28

2021-01-12 20:15  
Шикарний мульт! Змушує багато про що задуматися. Дивився в кіно, аж заплакав
sDob 
Новенький


З нами з: 19.01.16
Востаннє: 04.03.21
Повідомлень: 22

2021-01-14 10:36  
а що про якість звуку скажете?
OlesMolfar 
Новенький


З нами з: 20.11.14
Востаннє: 28.02.21
Повідомлень: 2

2021-01-14 21:55  
igor911
Підкажіть чи будуть субтитри українською для нечуючих?

igor911 
Модератор відео


З нами з: 18.01.08
Востаннє: 04.03.21
Повідомлень: 15617

2021-01-15 00:18  
OlesMolfar написано:
Підкажіть чи будуть субтитри українською для нечуючих?

Мені невідомо, чи взагалі будуть українські субтитри. А спеціалізованих для нечуючих взагалі ніхто не робить, здається.

zColourigor 
Новенький


З нами з: 04.12.16
Востаннє: 27.02.21
Повідомлень: 1

2021-01-15 19:07  
sDob
Чудовий звук. Я, взагалі, стараюсь в лайн не дивитись. Але тут скачав, послухав. Виявилось, що практично не відрізнити. Один раз почув «хрускіт» на початку. А так, рекомендую.

Щодо самого мульта - гарний, добрий. Щоправда, я не в такому захваті, як багато хто з коментуючих в інтернеті. Певно, скучили за мультами загалом.
Моя оцінка 4.5 з 5.

u4col 
Новенький


З нами з: 03.10.11
Востаннє: 03.03.21
Повідомлень: 11

2021-01-15 19:58  
Реліз оновлено - додано озвучення від Dniprofilm
zervlad 
Новенький


З нами з: 22.11.15
Востаннє: 03.03.21
Повідомлень: 1

2021-01-18 11:59  
Все супер! Мультик шикарний! Але є нюанс.
У звуковій доріжці з дубльованим озвученням на тлі постійно чути якесь гудіння. Спочатку не помітно, але в сценах де тиша за сюжетом, чітко чутно. І коли вже помітив то важко не помічати та через пів години такого перегляду починає голова гудіти. Перевірив інші релізи з різних розмірами, проблема лишається. Походу баг в звуковій доріжці. Сподіваюся хтось з часом пофіксить. Заздалегідь дякую.

PhilosophUA 
VIP


З нами з: 13.02.10
Востаннє: 27.02.21
Повідомлень: 409

2021-01-28 23:50  
zervlad
Такий же шум був і в диво жінки 1984...
Щодо релізу, то запитання: який "геній" додумався 1 аудіодоріжку зробити дніпрофільмівську із закадром, а дубляж від ле Дуаєн - другою доріжкою?..

igor911 
Модератор відео


З нами з: 18.01.08
Востаннє: 04.03.21
Повідомлень: 15617

2021-01-29 00:14  
PhilosophUA написано:
а дубляж від ле Дуаєн - другою доріжкою?

через один коментар - скарги на гул в Line-записі цієї доріжки, зрозуміло, що при виході ліцензії дубляж буде першим.

Olegok13 
Новенький


З нами з: 14.11.10
Востаннє: 03.03.21
Повідомлень: 20

2021-02-21 21:16  
Обов'язковий до ознайомлення! Всім!
Maters 
Відео Гуртом - підтримка та поширення
Відео Гуртом - підтримка та поширення


З нами з: 27.03.12
Востаннє: 03.03.21
Повідомлень: 2526

2021-03-02 22:51  
Цей мультфільм набагато крутіший: https://toloka.to/t87779
Ваш часовий пояс: GMT + 2 Години

Нова тема   Відповісти