Взвод / Platoon (1986) 1080p H.265 Ukr/Eng | Sub Ukr/Eng [US 25th Anniversary Edition]

Нові коментарі

Нова тема   Відповісти
Автор Повідомлення
Anonymous 







2021-01-12 12:24  
Взвод / Platoon (1986) 1080p H.265 Ukr/Eng | Sub Ukr/Eng [US 25th Anniversary Edition]

Взвод / Platoon (1986) 1080p H.265 Ukr/Eng | Sub Ukr/Eng [US 25th Anniversary Edition]


Жанр: драма, військовий
Країна: Велика Британія, США
Кінокомпанія: Hemdale Film, Cinema 86
Режисер: Олівер Стоун
Актори: Том Беренджер, Віллем Дефо, Чарлі Шин, Форест Вайтакер, Франческо Квінн, Джон К. Маꥳнлі, Річард Едсон, Кевін Діллон, Реджі Джонсон, Кіт Девід, Джонні Депп

Сюжет:
У вересні 1967 року, в прикордонний район між В'єтнамом та Камбоджею, прибув рядовий 25-го піхотного полку Кріс Тейлор. Прибув, щоб своїми очима побачити, як виглядає справжнє Пекло. Не потойбічне, вигадане письменниками чи художниками, а справжнє, цілком земне Пекло, на території якого, вчепилися пазурями один-в-одного сержант Боб Барнс і сержант Ілайес Гродін. Вони теж думали, що будуть воювати з партизанами-в'єтконгівцями, але виявилося, що іноді доводиться битися й зі своїми ...

Тривалість: 01:59:49
Якість: [US 25th Anniversary Edition]

Відео:
кодек: H.265 (HEVC)
розмір кадру: 1920 x 1040
бітрейт: 11 343 кб/с
бітова глибина: 10 біт

Увага! Перед завантаженням переконайтесь, що ваш пристрій відтворення (та/або ПЗ) підтримує H.265 (HEVC)

Аудіо # 1:
мова: українська
озвучення: багатоголосе закадрове , , ,
кодек: AC-3 2.0
бітрейт: 192 кб/с

Аудіо # 2:
мова: англійська
озвучення: оригінал
кодек: 5.1
бітрейт: 1510 кб/с

Субтитри # 1: (Full edited by Daddy_BOSS)
мова: українська
тип: програмні (м'які)
формат: *.srt

Субтитри # 2-3: (Full, SDH)
мова: англійська
тип: програмні (м'які)
формат: *.srt


Інформація про файл
Код:
General
Unique ID                                : 329870281201460432743383835141967077613 (0xF82AB48A253F87DA26CC09D55E7E60ED)
Complete name                            : Platoon (1986) [US 25th Anniversary Edition] 1080p H.265 [UKR_ENG] [Hurtom].
Format                                   :
Format version                           : Version 4
File size                                : 10.9 GiB
Duration                                 : 1 h 59 min
Overall bit rate                         : 13.0 Mb/s
Movie name                               : Взвод / Platoon (1986) [US 25th Anniversary Edition]
Encoded date                             : UTC 2021-01-12 01:56:43
Writing application                      : v20.0.0 ('I Am The Sun') 64-bit
Writing library                          : libebml v1.3.5 + v1.4.8
Cover                                    : Yes
Attachments                              : Cover.jpg

Video
ID                                       : 1
Format                                   : HEVC
Format/Info                              : High Efficiency Video Coding
Format profile                           : Main [email protected]@High
Codec ID                                 : V_MPEGH/ISO/HEVC
Duration                                 : 1 h 59 min
Bit rate                                 : 11.3 Mb/s
Width                                    : 1 920 pixels
Height                                   : 1 040 pixels
Display aspect ratio                     : 1.85:1
Frame rate mode                          : Constant
Frame rate                               : 23.976 (24000/1001) FPS
Color space                              : YUV
Chroma subsampling                       : 4:2:0
Bit depth                                : 10 bits
Bits/(Pixel*Frame)                       : 0.237
Stream size                              : 9.49 GiB (87%)
Title                                    : Взвод / Platoon (1986) [US 25th Anniversary Edition]
Writing library                          : x265 3.4+4-g3ae3d7116:[Windows][GCC 10.2.0][64 bit] 10bit
Encoding settings                        : cpuid=1111039 / frame-threads=3 / numa-pools=8 / wpp / no-pmode / no-pme / no-psnr / no-ssim / log-level=2 / input-csp=1 / input-res=1920x1040 / interlace=0 / total-frames=172380 / level-idc=41 / high-tier=1 / uhd-bd=0 / ref=5 / no-allow-non-conformance / no-repeat-headers / annexb / no-aud / no-hrd / info / hash=0 / no-temporal-layers / open-gop / min-keyint=23 / keyint=240 / gop-lookahead=0 / bframes=9 / b-adapt=2 / b-pyramid / bframe-bias=0 / rc-lookahead=40 / lookahead-slices=0 / scenecut=40 / hist-scenecut=0 / radl=0 / no-splice / no-intra-refresh / ctu=64 / min-cu-size=8 / rect / amp / max-tu-size=32 / tu-inter-depth=4 / tu-intra-depth=4 / limit-tu=1 / rdoq-level=2 / dynamic-rd=0.00 / no-ssim-rd / signhide / no-tskip / nr-intra=0 / nr-inter=0 / no-constrained-intra / no-strong-intra-smoothing / max-merge=5 / limit-refs=3 / no-limit-modes / me=3 / subme=7 / merange=57 / temporal-mvp / no-frame-dup / no-hme / weightp / weightb / no-analyze-src-pics / deblock=-3:-3 / no-sao / no-sao-non-deblock / rd=6 / selective-sao=0 / no-early-skip / rskip / no-fast-intra / no-tskip-fast / no-cu-lossless / b-intra / no-splitrd-skip / rdpenalty=0 / psy-rd=2.00 / psy-rdoq=1.00 / no-rd-refine / no-lossless / cbqpoffs=0 / crqpoffs=0 / rc=crf / crf=19.8 / qcomp=0.70 / qpstep=4 / stats-write=0 / stats-read=0 / vbv-maxrate=50000 / vbv-bufsize=50000 / vbv-init=0.9 / crf-max=0.0 / crf-min=0.0 / ipratio=1.40 / pbratio=1.30 / aq-mode=1 / aq-strength=1.00 / no-cutree / zone-count=1 / zones: / start-frame=168069 / end-frame=172364 / qp=36 / no-strict-cbr / qg-size=32 / no-rc-grain / qpmax=69 / qpmin=0 / no-const-vbv / sar=1 / overscan=0 / videoformat=5 / range=0 / colorprim=2 / transfer=2 / colormatrix=2 / chromaloc=0 / display-window=0 / cll=0,0 / min-luma=0 / max-luma=1023 / log2-max-poc-lsb=8 / vui-timing-info / vui-hrd-info / slices=1 / no-opt-qp-pps / no-opt-ref-list-length-pps / no-multi-pass-opt-rps / scenecut-bias=0.00 / hist-threshold=0.01 / no-opt-cu-delta-qp / no-aq-motion / no-hdr10 / no-hdr10-opt / no-dhdr10-opt / no-idr-recovery-sei / analysis-reuse-level=0 / analysis-save-reuse-level=0 / analysis-load-reuse-level=0 / scale-factor=0 / refine-intra=0 / refine-inter=0 / refine-mv=1 / refine-ctu-distortion=0 / no-limit-sao / ctu-info=0 / no-lowpass-dct / refine-analysis-type=0 / copy-pic=1 / max-ausize-factor=1.0 / no-dynamic-refine / no-single-sei / no-hevc-aq / no-svt / no-field / qp-adaptation-range=1.00 / no-scenecut-aware-qpconformance-window-offsets / right=0 / bottom=0 / decoder-max-rate=0
Language                                 : English
Default                                  : Yes
Forced                                   : No

Audio #1
ID                                       : 2
Format                                   : AC-3
Format/Info                              : Audio Coding 3
Commercial name                          : Dolby Digital
Codec ID                                 : A_AC3
Duration                                 : 1 h 59 min
Bit rate mode                            : Constant
Bit rate                                 : 192 kb/s
Channel(s)                               : 2 channels
Channel layout                           : L R
Sampling rate                            : 48.0 kHz
Frame rate                               : 31.250 FPS (1536 SPF)
Compression mode                         : Lossy
Stream size                              : 164 MiB (1%)
Title                                    : AC-3 / 2.0 Ch / 192 kbps / MVO / NLO.TV, 2+2, 1+1, Kino
Language                                 : Ukrainian
Service kind                             : Complete Main
Default                                  : Yes
Forced                                   : Yes

Audio #2
ID                                       : 3
Format                                   :
Format/Info                              : Digital Theater Systems
Codec ID                                 : A_DTS
Duration                                 : 1 h 59 min
Bit rate mode                            : Constant
Bit rate                                 : 1 509 kb/s
Channel(s)                               : 6 channels
Channel layout                           : C L R Ls Rs LFE
Sampling rate                            : 48.0 kHz
Frame rate                               : 93.750 FPS (512 SPF)
Bit depth                                : 16 bits
Compression mode                         : Lossy
Stream size                              : 1.26 GiB (12%)
Title                                    : / 5.1 Ch / 1509 kbps / Original
Language                                 : English
Default                                  : No
Forced                                   : No

Text #1
ID                                       : 4
Format                                   : UTF-8
Codec ID                                 : S_TEXT/UTF8
Codec ID/Info                            : UTF-8 Plain Text
Duration                                 : 1 h 59 min
Bit rate                                 : 72 b/s
Count of elements                        : 1088
Stream size                              : 63.4 KiB (0%)
Title                                    : Full edited by Daddy_BOSS
Language                                 : Ukrainian
Default                                  : No
Forced                                   : No

Text #2
ID                                       : 5
Format                                   : UTF-8
Codec ID                                 : S_TEXT/UTF8
Codec ID/Info                            : UTF-8 Plain Text
Duration                                 : 1 h 53 min
Bit rate                                 : 54 b/s
Count of elements                        : 1249
Stream size                              : 45.5 KiB (0%)
Title                                    : Full
Language                                 : English
Default                                  : No
Forced                                   : No

Text #3
ID                                       : 6
Format                                   : UTF-8
Codec ID                                 : S_TEXT/UTF8
Codec ID/Info                            : UTF-8 Plain Text
Duration                                 : 1 h 53 min
Bit rate                                 : 59 b/s
Count of elements                        : 1441
Stream size                              : 49.9 KiB (0%)
Title                                    : SDH
Language                                 : English
Default                                  : No
Forced                                   : No

Menu
00:00:00.000                             : en:Logo / Main Title
00:02:57.135                             : en:Unknown Territory
00:05:26.534                             : en:Ants
00:08:14.535                             : en:First Week in Hell
00:11:28.479                             : en:Platoon Politics
00:13:13.667                             : en:New Guys on Ambush
00:18:43.122                             : en:Dead of Night
00:22:44.863                             : en:A Lesson in Dying
00:26:26.001                             : en:A Crusader
00:29:59.422                             : en:The Feel-Good Cave
00:32:18.895                             : en:Talkin' Trash
00:36:30.730                             : en:Bunker Complex
00:43:07.459                             : en:"Where's Manny?"
00:45:09.415                             : en:Doing the Village
00:50:32.904                             : en:Look the Other Way
00:55:49.554                             : en:"Fire in the Hole"
00:58:56.157                             : en:Enforced Cease-Fire
01:01:50.581                             : en:No Faith
01:03:04.864                             : en:A Rainy Blur
01:04:45.381                             : en:A Waste of Men
01:11:02.549                             : en:Elias Is Out There
01:15:26.772                             : en:"He's Dead?"
01:16:48.437                             : en:Your Tired Your Poor
01:21:07.279                             : en:Experts on Killing
01:26:42.322                             : en:Live Bait
01:29:21.022                             : en:The Rest Is Gravy
01:32:25.498                             : en:"Gotta Die Some Time"
01:37:21.794                             : en:In the Foxhole
01:43:40.130                             : en:Overrun
01:46:49.444                             : en:One Last Shot
01:50:16.651                             : en:Survivors
01:55:35.011                             : en:End Credits
Лог кодування
Код:
x265 [info]: frame I: 731, Avg QP:17.54 kb/s: 23868.97
x265 [info]: frame P: 38386, Avg QP:18.96 kb/s: 19878.52
x265 [info]: frame B: 133263, Avg QP:20.85 kb/s: 8814.38
x265 [info]: Weighted P-Frames: Y:16.0% UV:13.4%
x265 [info]: Weighted B-Frames: Y:13.3% UV:10.3%
x265 [info]: consecutive B-frames: 2.4% 4.1% 5.8% 54.0% 7.9% 24.2% 0.6% 0.6% 0.1% 0.1%
x265 [info]: encoded 172380 frames in 238374.13s (0.72 fps), 11342.01 kb/s, Avg QP:20.42
Світлини




Джерело: & &
Особиста оцінка: 0 - не дивився


Срібний реліз (на рейтинг впливає 50% завантаженого)
 Трекер:    Зареєстрований   

Завантажити / скачати фільм українською



відео для новачків



 Зареєстрований:   2021-01-12 12:24
 Розмір:   10.92 GB 
 Оцінка фільму:   10/10 (Голосів: 4)
   
Інші релізи
   Взвод / Platoon (1986) AVC Ukr/Eng | sub Ukr/Eng Arsenfpu  8 / 0   2.34 GB   2020-05-13 00:06 
   Чота (Взвод) / Platoon (1986) Remux 1080p Ukr/Eng | Sub Ukr/Eng kryk-v.ya.  1 / 0   25.89 GB   2020-05-11 23:48 
   Взвод (Чота) / Platoon (1986) Ukr/Eng | Sub Ukr/Eng JACKUS  11 / 0   2.19 GB   2014-08-07 14:35 
   Взвод / Platoon (1986) 720р Ukr/Eng | Sub Ukr/Eng SuperContik  5 / 0   7.02 GB   2011-06-28 21:22 
korsar1488 
Новенький


З нами з: 28.07.12
Востаннє: 16.01.21
Повідомлень: 23

2021-01-13 01:09  
Мабуть найкращий фільм, який коли-небудь дивився.
Та ще й поталанило потрапити на ретроспективний показ у кінотеатрі.
35 років з тих пір минуло...
Дякую авторам релізу !

Ваш часовий пояс: GMT + 2 Години

Нова тема   Відповісти