НаркоМАМА (Mama Weed) / La daronne (2020) 720p Ukr/Fre | Sub Eng

Нові коментарі

Нова тема   Відповісти
Автор Повідомлення
Anonymous 







2021-01-12 12:19  
НаркоМАМА / La daronne (2020) 720p Ukr/Fre | Sub Eng

Альтернативний та оригінальний постери:





Жанр: комедія, кримінальний, драма
Країна: Франція



Кінокомпанія: Les Films du Lendemain, La Boetie Films, Le Pacte, Scope Pictures, Franklin Films, Les Films de la Greluche, Restons Groupés Production, Les Films du Camélia, Canal+, OCS, Cofimage 30, Cinéventure 4, La Région Île-de-France, Centre National du Cinéma et de l'Image Animée
Режисери: Жан-Поль Саломе / Jean-Paul Salomé
Актори: Ізабель Юппер / Isabelle Huppert, Іпполіт Жирардо / Hippolyte Girardot, Фаріда Ушані / Farida Ouchani, Ліліан Ровер / Liliane Rovère, Айріс Брай / Iris Bry, Надя Нгуйєн / Nadja Nguyen, Ребекка Мардер / Rebecca Marder, Рашид Гуеллаз / Rachid Guellaz, Мурад Будауд / Mourad Boudaoud, Юссеф Сарауі / Youssef Sahraoui та інші.

Сюжет:
Талановита перекладачка працює в поліції, допомагає розкривати злочини. Одного разу їй стає відомо про велику партію наркотиків. Спокуса змінити життя надто велика. І от вона перетворюється на НаркоМаму, і будує свою імперію. Тепер вся поліція полює на неї.
Офіційний український трейлер:
Вікова категорія: 12+

Тривалість: 01:45:14
Якість: 720p

Відео:
кодек:
розмір кадру: 1280 x 536
бітрейт: 6788 кб/с

Аудіо # 1:
мова: українська
озвучення: багатоголосе закадрове
кодек: 5.1
бітрейт: 384 кб/с

Аудіо # 2:
мова: французька
озвучення: оригінал
кодек: 5.1
бітрейт: 640 кб/с

Субтитри:
мова: англійська
тип: програмні (м'які)
формат: *.srt
Info
Код:
Complete name               : La daronne (2020) [Ukr,Fre sub.Eng] 720p [Hurtom].
Format                      :
Format version              : Version 4
File size                   : 5.74 GiB
Duration                    : 1 h 45 min
Overall bit rate            : 7 807 kb/s
Movie name                  : НаркоМАМА / La daronne (2020) [Ukr,Fre sub.Eng] 720p [Hurtom]
Encoded date                : UTC 2021-01-12 12:05:03
Writing application         : v52.0.0 ('Secret For The Mad') 64-bit
Writing library             : libebml v1.4.1 + v1.6.2
Cover                       : Yes
Attachments                 : cover.jpg

Video
ID                          : 1
Format                      : AVC
Format/Info                 : Advanced Video Codec
Format profile              : [email protected]
Format settings             : CABAC / 12 Ref Frames
Format settings, CABAC      : Yes
Format settings, Reference  : 12 frames
Codec ID                    : V_MPEG4/ISO/AVC
Duration                    : 1 h 45 min
Bit rate                    : 6 788 kb/s
Width                       : 1 280 pixels
Height                      : 536 pixels
Display aspect ratio        : 2.40:1
Frame rate mode             : Constant
Frame rate                  : 23.976 (24000/1001) FPS
Color space                 : YUV
Chroma subsampling          : 4:2:0
Bit depth                   : 8 bits
Scan type                   : Progressive
Bits/(Pixel*Frame)          : 0.413
Stream size                 : 4.99 GiB (87%)
Title                       : НаркоМАМА / La daronne (2020) 720p [seleZen]
Writing library             : core 161 -from seleZen
Encoding settings           : cabac=1 / ref=12 / deblock=1:-2:-2 / analyse=0x3:0x113 / me=umh / subme=10 / psy=1 / psy_rd=1.05:0.06 / mixed_ref=1 / me_range=32 / chroma_me=1 / trellis=2 / 8x8dct=1 / cqm=0 / deadzone=21,11 / fast_pskip=0 / chroma_qp_offset=-3 / threads=17 / lookahead_threads=2 / sliced_threads=0 / nr=0 / decimate=0 / interlaced=0 / bluray_compat=0 / constrained_intra=0 / bframes=9 / b_pyramid=2 / b_adapt=2 / b_bias=0 / direct=3 / weightb=1 / open_gop=0 / weightp=2 / keyint=240 / keyint_min=23 / scenecut=40 / intra_refresh=0 / rc_lookahead=40 / rc=2pass / mbtree=0 / bitrate=6788 / ratetol=1.0 / qcomp=0.60 / qpmin=0 / qpmax=51 / qpstep=4 / cplxblur=20.0 / qblur=0.5 / vbv_maxrate=50000 / vbv_bufsize=62000 / nal_hrd=none / filler=0 / ip_ratio=1.40 / pb_ratio=1.30 / aq=3:0.80
Language                    : French
Default                     : Yes
Forced                      : No

Audio #1
ID                          : 2
Format                      : AC-3
Format/Info                 : Audio Coding 3
Commercial name             : Dolby Digital
Codec ID                    : A_AC3
Duration                    : 1 h 45 min
Bit rate mode               : Constant
Bit rate                    : 384 kb/s
Channel(s)                  : 6 channels
Channel layout              : L R C LFE Ls Rs
Sampling rate               : 48.0 kHz
Frame rate                  : 31.250 FPS (1536 SPF)
Compression mode            : Lossy
Stream size                 : 289 MiB (5%)
Language                    : Ukrainian
Service kind                : Complete Main
Default                     : Yes
Forced                      : Yes

Audio #2
ID                          : 3
Format                      : AC-3
Format/Info                 : Audio Coding 3
Commercial name             : Dolby Digital
Codec ID                    : A_AC3
Duration                    : 1 h 45 min
Bit rate mode               : Constant
Bit rate                    : 640 kb/s
Channel(s)                  : 6 channels
Channel layout              : L R C LFE Ls Rs
Sampling rate               : 48.0 kHz
Frame rate                  : 31.250 FPS (1536 SPF)
Compression mode            : Lossy
Stream size                 : 482 MiB (8%)
Title                       : Original, 5.1 640 Kbps
Language                    : French
Service kind                : Complete Main
Default                     : No
Forced                      : No

Text
ID                          : 4
Format                      : UTF-8
Codec ID                    : S_TEXT/UTF8
Codec ID/Info               : UTF-8 Plain Text
Duration                    : 1 h 43 min
Bit rate                    : 42 b/s
Count of elements           : 1192
Stream size                 : 32.6 KiB (0%)
Title                       : Full
Language                    : English
Default                     : No
Forced                      : No

Menu
00:00:00.000                : fr:Rozdil 01
00:07:51.346                : fr:Rozdil 02
00:15:56.581                : fr:Rozdil 03
00:23:09.054                : fr:Rozdil 04
00:31:07.824                : fr:Rozdil 05
00:39:49.971                : fr:Rozdil 06
00:47:00.401                : fr:Rozdil 07
00:55:30.911                : fr:Rozdil 08
01:05:44.065                : fr:Rozdil 09
01:14:08.444                : fr:Rozdil 10
01:23:14.823                : fr:Rozdil 11
01:31:47.377                : fr:Rozdil 12
01:40:11.964                : fr:Rozdil 13



Джерело: & Еneyida.tv


 Трекер:    Зареєстрований   

Завантажити / скачати фільм українською



відео для новачків



 Зареєстрований:   2021-01-12 14:20
 Розмір:   5.74 GB 
 Оцінка фільму:   8.5/10 (Голосів: 6)
 ЗАЛИШАЙТЕСЬ ЯКОМОГА ДОВШЕ НА РОЗДАЧІ! ЗАВАНТАЖИВ САМ - ДАЙ ЗАВАНТАЖИТИ ІНШИМ!
   
Інші релізи
bot 
робот


З нами з: 30.09.07
Востаннє: 26.05.05
Повідомлень: 26921

2021-01-12 14:19  
Тему перенесено з Анонси релізів до форуму Фільми в HD


igor911

Ваш часовий пояс: GMT + 2 Години

Нова тема   Відповісти